  0
SECTION
  2
HEADER
  9
$ACADVER
  1
AC1027
  9
$ACADMAINTVER
 70
    55
  9
$DWGCODEPAGE
  3
ANSI_1252
  9
$LASTSAVEDBY
  1
ggruner
  9
$REQUIREDVERSIONS
160
                 0
  9
$INSBASE
 10
0.0
 20
0.0
 30
0.0
  9
$EXTMIN
 10
-1.099109714285713
 20
-2.509081999999999
 30
0.0
  9
$EXTMAX
 10
19.422462
 20
9.945461999999999
 30
0.0
  9
$LIMMIN
 10
0.0
 20
0.0
  9
$LIMMAX
 10
12.0
 20
9.0
  9
$ORTHOMODE
 70
     1
  9
$REGENMODE
 70
     1
  9
$FILLMODE
 70
     1
  9
$QTEXTMODE
 70
     0
  9
$MIRRTEXT
 70
     1
  9
$LTSCALE
 40
1.0
  9
$ATTMODE
 70
     1
  9
$TEXTSIZE
 40
0.18
  9
$TRACEWID
 40
0.05
  9
$TEXTSTYLE
  7
STANDARD
  9
$CLAYER
  8
0
  9
$CELTYPE
  6
BYLAYER
  9
$CECOLOR
 62
   256
  9
$CELTSCALE
 40
1.0
  9
$DISPSILH
 70
     0
  9
$DIMSCALE
 40
1.0
  9
$DIMASZ
 40
0.15
  9
$DIMEXO
 40
0.0625
  9
$DIMDLI
 40
0.38
  9
$DIMRND
 40
0.0
  9
$DIMDLE
 40
0.0
  9
$DIMEXE
 40
0.18
  9
$DIMTP
 40
0.0
  9
$DIMTM
 40
0.0
  9
$DIMTXT
 40
0.15
  9
$DIMCEN
 40
0.09
  9
$DIMTSZ
 40
0.0
  9
$DIMTOL
 70
     0
  9
$DIMLIM
 70
     0
  9
$DIMTIH
 70
     1
  9
$DIMTOH
 70
     1
  9
$DIMSE1
 70
     0
  9
$DIMSE2
 70
     0
  9
$DIMTAD
 70
     0
  9
$DIMZIN
 70
     4
  9
$DIMBLK
  1

  9
$DIMASO
 70
     1
  9
$DIMSHO
 70
     1
  9
$DIMPOST
  1

  9
$DIMAPOST
  1

  9
$DIMALT
 70
     0
  9
$DIMALTD
 70
     2
  9
$DIMALTF
 40
25.4
  9
$DIMLFAC
 40
1.0
  9
$DIMTOFL
 70
     0
  9
$DIMTVP
 40
0.0
  9
$DIMTIX
 70
     0
  9
$DIMSOXD
 70
     0
  9
$DIMSAH
 70
     0
  9
$DIMBLK1
  1

  9
$DIMBLK2
  1

  9
$DIMSTYLE
  2
STANDARD
  9
$DIMCLRD
 70
     0
  9
$DIMCLRE
 70
     0
  9
$DIMCLRT
 70
     0
  9
$DIMTFAC
 40
1.0
  9
$DIMGAP
 40
0.09
  9
$DIMJUST
 70
     0
  9
$DIMSD1
 70
     0
  9
$DIMSD2
 70
     0
  9
$DIMTOLJ
 70
     1
  9
$DIMTZIN
 70
     0
  9
$DIMALTZ
 70
     0
  9
$DIMALTTZ
 70
     0
  9
$DIMUPT
 70
     0
  9
$DIMDEC
 70
     3
  9
$DIMTDEC
 70
     4
  9
$DIMALTU
 70
     2
  9
$DIMALTTD
 70
     2
  9
$DIMTXSTY
  7
STANDARD
  9
$DIMAUNIT
 70
     0
  9
$DIMADEC
 70
     0
  9
$DIMALTRND
 40
0.0
  9
$DIMAZIN
 70
     0
  9
$DIMDSEP
 70
    46
  9
$DIMATFIT
 70
     3
  9
$DIMFRAC
 70
     0
  9
$DIMLDRBLK
  1

  9
$DIMLUNIT
 70
     2
  9
$DIMLWD
 70
    -2
  9
$DIMLWE
 70
    -2
  9
$DIMTMOVE
 70
     0
  9
$DIMFXL
 40
1.0
  9
$DIMFXLON
 70
     0
  9
$DIMJOGANG
 40
0.7853981633974483
  9
$DIMTFILL
 70
     0
  9
$DIMTFILLCLR
 70
     0
  9
$DIMARCSYM
 70
     0
  9
$DIMLTYPE
  6

  9
$DIMLTEX1
  6

  9
$DIMLTEX2
  6

  9
$DIMTXTDIRECTION
 70
     0
  9
$LUNITS
 70
     2
  9
$LUPREC
 70
     4
  9
$SKETCHINC
 40
0.1
  9
$FILLETRAD
 40
0.05
  9
$AUNITS
 70
     0
  9
$AUPREC
 70
     0
  9
$MENU
  1
acad
  9
$ELEVATION
 40
0.0
  9
$PELEVATION
 40
0.0
  9
$THICKNESS
 40
0.0
  9
$LIMCHECK
 70
     0
  9
$CHAMFERA
 40
0.03
  9
$CHAMFERB
 40
0.03
  9
$CHAMFERC
 40
1.0
  9
$CHAMFERD
 40
0.0
  9
$SKPOLY
 70
     0
  9
$TDCREATE
 40
2451962.660482176
  9
$TDUCREATE
 40
2451962.868815509
  9
$TDUPDATE
 40
2459222.351373032
  9
$TDUUPDATE
 40
2459222.559706366
  9
$TDINDWG
 40
0.1218716204
  9
$TDUSRTIMER
 40
0.1218714815
  9
$USRTIMER
 70
     1
  9
$ANGBASE
 50
0.0
  9
$ANGDIR
 70
     0
  9
$PDMODE
 70
     0
  9
$PDSIZE
 40
0.0
  9
$PLINEWID
 40
0.0
  9
$SPLFRAME
 70
     0
  9
$SPLINETYPE
 70
     6
  9
$SPLINESEGS
 70
     8
  9
$HANDSEED
  5
59A
  9
$SURFTAB1
 70
     6
  9
$SURFTAB2
 70
     6
  9
$SURFTYPE
 70
     6
  9
$SURFU
 70
     6
  9
$SURFV
 70
     6
  9
$UCSBASE
  2

  9
$UCSNAME
  2

  9
$UCSORG
 10
0.0
 20
0.0
 30
0.0
  9
$UCSXDIR
 10
1.0
 20
0.0
 30
0.0
  9
$UCSYDIR
 10
0.0
 20
1.0
 30
0.0
  9
$UCSORTHOREF
  2

  9
$UCSORTHOVIEW
 70
     0
  9
$UCSORGTOP
 10
0.0
 20
0.0
 30
0.0
  9
$UCSORGBOTTOM
 10
0.0
 20
0.0
 30
0.0
  9
$UCSORGLEFT
 10
0.0
 20
0.0
 30
0.0
  9
$UCSORGRIGHT
 10
0.0
 20
0.0
 30
0.0
  9
$UCSORGFRONT
 10
0.0
 20
0.0
 30
0.0
  9
$UCSORGBACK
 10
0.0
 20
0.0
 30
0.0
  9
$PUCSBASE
  2

  9
$PUCSNAME
  2

  9
$PUCSORG
 10
0.0
 20
0.0
 30
0.0
  9
$PUCSXDIR
 10
1.0
 20
0.0
 30
0.0
  9
$PUCSYDIR
 10
0.0
 20
1.0
 30
0.0
  9
$PUCSORTHOREF
  2

  9
$PUCSORTHOVIEW
 70
     0
  9
$PUCSORGTOP
 10
0.0
 20
0.0
 30
0.0
  9
$PUCSORGBOTTOM
 10
0.0
 20
0.0
 30
0.0
  9
$PUCSORGLEFT
 10
0.0
 20
0.0
 30
0.0
  9
$PUCSORGRIGHT
 10
0.0
 20
0.0
 30
0.0
  9
$PUCSORGFRONT
 10
0.0
 20
0.0
 30
0.0
  9
$PUCSORGBACK
 10
0.0
 20
0.0
 30
0.0
  9
$USERI1
 70
     0
  9
$USERI2
 70
     0
  9
$USERI3
 70
     0
  9
$USERI4
 70
     0
  9
$USERI5
 70
     0
  9
$USERR1
 40
0.0
  9
$USERR2
 40
0.0
  9
$USERR3
 40
0.0
  9
$USERR4
 40
0.0
  9
$USERR5
 40
0.0
  9
$WORLDVIEW
 70
     1
  9
$SHADEDGE
 70
     3
  9
$SHADEDIF
 70
    70
  9
$TILEMODE
 70
     1
  9
$MAXACTVP
 70
    48
  9
$PINSBASE
 10
0.0
 20
0.0
 30
0.0
  9
$PLIMCHECK
 70
     0
  9
$PEXTMIN
 10
1.000000000000000E+20
 20
1.000000000000000E+20
 30
1.000000000000000E+20
  9
$PEXTMAX
 10
-1.000000000000000E+20
 20
-1.000000000000000E+20
 30
-1.000000000000000E+20
  9
$PLIMMIN
 10
0.0
 20
0.0
  9
$PLIMMAX
 10
12.0
 20
9.0
  9
$UNITMODE
 70
     0
  9
$VISRETAIN
 70
     1
  9
$PLINEGEN
 70
     0
  9
$PSLTSCALE
 70
     1
  9
$TREEDEPTH
 70
  3020
  9
$CMLSTYLE
  2
STANDARD
  9
$CMLJUST
 70
     0
  9
$CMLSCALE
 40
1.0
  9
$PROXYGRAPHICS
 70
     1
  9
$MEASUREMENT
 70
     0
  9
$CELWEIGHT
370
    -1
  9
$ENDCAPS
280
     0
  9
$JOINSTYLE
280
     0
  9
$LWDISPLAY
290
     0
  9
$INSUNITS
 70
     0
  9
$HYPERLINKBASE
  1

  9
$STYLESHEET
  1

  9
$XEDIT
290
     1
  9
$CEPSNTYPE
380
     0
  9
$PSTYLEMODE
290
     1
  9
$FINGERPRINTGUID
  2
{58133DAA-0BC5-4162-9113-8DA4DD5C24E2}
  9
$VERSIONGUID
  2
{DB3111F1-B527-4762-ADE7-D56BA6B0CE22}
  9
$EXTNAMES
290
     1
  9
$PSVPSCALE
 40
0.0
  9
$OLESTARTUP
290
     0
  9
$SORTENTS
280
   127
  9
$INDEXCTL
280
     0
  9
$HIDETEXT
280
     0
  9
$XCLIPFRAME
280
     2
  9
$HALOGAP
280
     0
  9
$OBSCOLOR
 70
   257
  9
$OBSLTYPE
280
     0
  9
$INTERSECTIONDISPLAY
280
     0
  9
$INTERSECTIONCOLOR
 70
   257
  9
$DIMASSOC
280
     1
  9
$PROJECTNAME
  1

  9
$CAMERADISPLAY
290
     0
  9
$LENSLENGTH
 40
50.0
  9
$CAMERAHEIGHT
 40
0.0
  9
$STEPSPERSEC
 40
2.0
  9
$STEPSIZE
 40
6.0
  9
$3DDWFPREC
 40
2.0
  9
$PSOLWIDTH
 40
0.25
  9
$PSOLHEIGHT
 40
4.0
  9
$LOFTANG1
 40
1.570796326794896
  9
$LOFTANG2
 40
1.570796326794896
  9
$LOFTMAG1
 40
0.0
  9
$LOFTMAG2
 40
0.0
  9
$LOFTPARAM
 70
     7
  9
$LOFTNORMALS
280
     1
  9
$LATITUDE
 40
37.795
  9
$LONGITUDE
 40
-122.394
  9
$NORTHDIRECTION
 40
0.0
  9
$TIMEZONE
 70
 -8000
  9
$LIGHTGLYPHDISPLAY
280
     1
  9
$TILEMODELIGHTSYNCH
280
     1
  9
$CMATERIAL
347
4FD
  9
$SOLIDHIST
280
     0
  9
$SHOWHIST
280
     1
  9
$DWFFRAME
280
     2
  9
$DGNFRAME
280
     0
  9
$REALWORLDSCALE
290
     1
  9
$INTERFERECOLOR
 62
     1
  9
$INTERFEREOBJVS
345
51F
  9
$INTERFEREVPVS
346
51C
  9
$CSHADOW
280
     0
  9
$SHADOWPLANELOCATION
 40
0.0
  0
ENDSEC
  0
SECTION
  2
CLASSES
  0
CLASS
  1
ACDBDICTIONARYWDFLT
  2
AcDbDictionaryWithDefault
  3
ObjectDBX Classes
 90
        0
 91
        1
280
     0
281
     0
  0
CLASS
  1
MATERIAL
  2
AcDbMaterial
  3
ObjectDBX Classes
 90
     1153
 91
        3
280
     0
281
     0
  0
CLASS
  1
VISUALSTYLE
  2
AcDbVisualStyle
  3
ObjectDBX Classes
 90
     4095
 91
       24
280
     0
281
     0
  0
CLASS
  1
TABLESTYLE
  2
AcDbTableStyle
  3
ObjectDBX Classes
 90
     4095
 91
        1
280
     0
281
     0
  0
CLASS
  1
SCALE
  2
AcDbScale
  3
ObjectDBX Classes
 90
     1153
 91
       17
280
     0
281
     0
  0
CLASS
  1
MLEADERSTYLE
  2
AcDbMLeaderStyle
  3
ACDB_MLEADERSTYLE_CLASS
 90
     4095
 91
        1
280
     0
281
     0
  0
CLASS
  1
ACDBSECTIONVIEWSTYLE
  2
AcDbSectionViewStyle
  3
ObjectDBX Classes
 90
     1025
 91
        1
280
     0
281
     0
  0
CLASS
  1
ACDBDETAILVIEWSTYLE
  2
AcDbDetailViewStyle
  3
ObjectDBX Classes
 90
     1025
 91
        1
280
     0
281
     0
  0
CLASS
  1
DICTIONARYVAR
  2
AcDbDictionaryVar
  3
ObjectDBX Classes
 90
        0
 91
        9
280
     0
281
     0
  0
CLASS
  1
CELLSTYLEMAP
  2
AcDbCellStyleMap
  3
ObjectDBX Classes
 90
     1152
 91
        1
280
     0
281
     0
  0
ENDSEC
  0
SECTION
  2
TABLES
  0
TABLE
  2
VPORT
  5
8
330
0
100
AcDbSymbolTable
 70
     1
  0
VPORT
  5
4F2
330
8
100
AcDbSymbolTableRecord
100
AcDbViewportTableRecord
  2
*ACTIVE
 70
     0
 10
0.0
 20
0.0
 11
1.0
 21
1.0
 12
8.956209165883731
 22
6.435986726239697
 13
0.0
 23
0.0
 14
0.5
 24
0.5
 15
0.5
 25
0.5
 16
0.0
 26
0.0
 36
1.0
 17
0.0
 27
0.0
 37
0.0
 40
15.78692170870738
 41
2.53012048192771
 42
50.0
 43
0.0
 44
0.0
 50
0.0
 51
0.0
 71
     0
 72
   100
 73
     1
 74
     1
 75
     0
 76
     0
 77
     0
 78
     0
281
     0
 65
     1
110
0.0
120
0.0
130
0.0
111
1.0
121
0.0
131
0.0
112
0.0
122
1.0
132
0.0
 79
     0
146
0.0
348
51B
 60
     3
 61
     5
292
     1
282
     1
141
0.0
142
0.0
 63
   250
421
  3355443
1001
ACAD_NAV_VCDISPLAY
1070
     3
  0
ENDTAB
  0
TABLE
  2
LTYPE
  5
5
330
0
100
AcDbSymbolTable
 70
     5
  0
LTYPE
  5
12
330
5
100
AcDbSymbolTableRecord
100
AcDbLinetypeTableRecord
  2
BYBLOCK
 70
     0
  3

 72
    65
 73
     0
 40
0.0
  0
LTYPE
  5
13
330
5
100
AcDbSymbolTableRecord
100
AcDbLinetypeTableRecord
  2
BYLAYER
 70
     0
  3

 72
    65
 73
     0
 40
0.0
  0
LTYPE
  5
14
330
5
100
AcDbSymbolTableRecord
100
AcDbLinetypeTableRecord
  2
CONTINUOUS
 70
     0
  3
Solid line
 72
    65
 73
     0
 40
0.0
  0
LTYPE
  5
22
330
5
100
AcDbSymbolTableRecord
100
AcDbLinetypeTableRecord
  2
CENTER
 70
     0
  3
Center ____ _ ____ _ ____ _ ____ _ ____ _ ____
 72
    65
 73
     4
 40
2.0
 49
1.25
 74
     0
 49
-0.25
 74
     0
 49
0.25
 74
     0
 49
-0.25
 74
     0
  0
LTYPE
  5
23
330
5
100
AcDbSymbolTableRecord
100
AcDbLinetypeTableRecord
  2
HIDDEN2
 70
     0
  3
Hidden (.5x) _ _ _ _ _ _ _ _ _ _ _ _ _ _ _ _ _
 72
    65
 73
     2
 40
0.1875
 49
0.125
 74
     0
 49
-0.0625
 74
     0
  0
LTYPE
  5
27
330
5
100
AcDbSymbolTableRecord
100
AcDbLinetypeTableRecord
  2
DASHED2
 70
     0
  3
Dashed (.5x) _ _ _ _ _ _ _ _ _ _ _ _ _ _ _ _ _
 72
    65
 73
     2
 40
0.375
 49
0.25
 74
     0
 49
-0.125
 74
     0
  0
ENDTAB
  0
TABLE
  2
LAYER
  5
2
330
0
100
AcDbSymbolTable
 70
     7
  0
LAYER
  5
E
102
{ACAD_XDICTIONARY
360
57C
102
}
330
2
100
AcDbSymbolTableRecord
100
AcDbLayerTableRecord
  2
0
 70
     0
 62
     7
  6
CONTINUOUS
370
    -3
390
4FB
347
50D
348
0
  0
LAYER
  5
24
102
{ACAD_XDICTIONARY
360
57E
102
}
330
2
100
AcDbSymbolTableRecord
100
AcDbLayerTableRecord
  2
DIMS_TEXT
 70
     0
 62
     3
  6
CONTINUOUS
370
    -3
390
4FB
347
50D
348
0
  0
LAYER
  5
25
102
{ACAD_XDICTIONARY
360
580
102
}
330
2
100
AcDbSymbolTableRecord
100
AcDbLayerTableRecord
  2
CENTER_LINE
 70
     0
 62
     1
  6
CENTER
370
    -3
390
4FB
347
50D
348
0
  0
LAYER
  5
26
102
{ACAD_XDICTIONARY
360
582
102
}
330
2
100
AcDbSymbolTableRecord
100
AcDbLayerTableRecord
  2
HIDDEN_LINE
 70
     0
 62
     4
  6
HIDDEN2
370
    -3
390
4FB
347
50D
348
0
  0
LAYER
  5
28
102
{ACAD_XDICTIONARY
360
584
102
}
330
2
100
AcDbSymbolTableRecord
100
AcDbLayerTableRecord
  2
TB
 70
     4
 62
     7
  6
CONTINUOUS
370
    -3
390
4FB
347
50D
348
0
  0
LAYER
  5
29
102
{ACAD_XDICTIONARY
360
586
102
}
330
2
100
AcDbSymbolTableRecord
100
AcDbLayerTableRecord
  2
CTR_LINES
 70
     0
 62
     1
  6
CENTER
370
    -3
390
4FB
347
50D
348
0
  0
LAYER
  5
170
330
2
100
AcDbSymbolTableRecord
100
AcDbLayerTableRecord
  2
DEFPOINTS
 70
     0
 62
     7
  6
CONTINUOUS
290
     0
370
    -3
390
4FB
347
50D
348
0
  0
ENDTAB
  0
TABLE
  2
STYLE
  5
3
330
0
100
AcDbSymbolTable
 70
     2
  0
STYLE
  5
F
330
3
100
AcDbSymbolTableRecord
100
AcDbTextStyleTableRecord
  2
STANDARD
 70
     0
 40
0.0
 41
1.0
 50
0.0
 71
     0
 42
0.18
  3
romans.shx
  4

  0
STYLE
  5
21
330
3
100
AcDbSymbolTableRecord
100
AcDbTextStyleTableRecord
  2

 70
     1
 40
0.0
 41
1.0
 50
0.0
 71
     0
 42
0.2
  3
ltypeshp.shx
  4

  0
ENDTAB
  0
TABLE
  2
VIEW
  5
6
330
0
100
AcDbSymbolTable
 70
     0
  0
ENDTAB
  0
TABLE
  2
UCS
  5
7
330
0
100
AcDbSymbolTable
 70
     0
  0
ENDTAB
  0
TABLE
  2
APPID
  5
9
330
0
100
AcDbSymbolTable
 70
     4
  0
APPID
  5
10
330
9
100
AcDbSymbolTableRecord
100
AcDbRegAppTableRecord
  2
ACAD
 70
     0
  0
APPID
  5
551
330
9
100
AcDbSymbolTableRecord
100
AcDbRegAppTableRecord
  2
AcadAnnoMonitorAlertIconDisabled
 70
     0
  0
APPID
  5
552
330
9
100
AcDbSymbolTableRecord
100
AcDbRegAppTableRecord
  2
ACAD_EXEMPT_FROM_CAD_STANDARDS
 70
     0
  0
APPID
  5
592
330
9
100
AcDbSymbolTableRecord
100
AcDbRegAppTableRecord
  2
ACAD_NAV_VCDISPLAY
 70
     0
  0
ENDTAB
  0
TABLE
  2
DIMSTYLE
  5
A
330
0
100
AcDbSymbolTable
 70
     1
100
AcDbDimStyleTable
 71
     0
  0
DIMSTYLE
105
1D
102
{ACAD_REACTORS
330
1BD
330
1D5
330
1ED
330
1FA
330
23B
330
259
330
278
330
293
330
2C8
330
2EE
330
354
330
370
330
396
330
3C6
330
3F4
330
402
330
4BE
102
}
330
A
100
AcDbSymbolTableRecord
100
AcDbDimStyleTableRecord
  2
STANDARD
 70
     0
340
F
  0
ENDTAB
  0
TABLE
  2
BLOCK_RECORD
  5
1
330
0
100
AcDbSymbolTable
 70
    19
  0
BLOCK_RECORD
  5
18
330
1
100
AcDbSymbolTableRecord
100
AcDbBlockTableRecord
  2
*MODEL_SPACE
340
54B
 70
     0
280
     1
281
     0
  0
BLOCK_RECORD
  5
15
330
1
100
AcDbSymbolTableRecord
100
AcDbBlockTableRecord
  2
*PAPER_SPACE
340
54C
 70
     0
280
     1
281
     0
  0
BLOCK_RECORD
  5
2A
330
1
100
AcDbSymbolTableRecord
100
AcDbBlockTableRecord
  2
750RAHSG
340
0
 70
     0
280
     1
281
     0
  0
BLOCK_RECORD
  5
1B0
330
1
100
AcDbSymbolTableRecord
100
AcDbBlockTableRecord
  2
*D1
340
0
 70
     0
280
     1
281
     0
  0
BLOCK_RECORD
  5
1CA
330
1
100
AcDbSymbolTableRecord
100
AcDbBlockTableRecord
  2
*D2
340
0
 70
     0
280
     1
281
     0
  0
BLOCK_RECORD
  5
1E0
330
1
100
AcDbSymbolTableRecord
100
AcDbBlockTableRecord
  2
*D3
340
0
 70
     0
280
     1
281
     0
  0
BLOCK_RECORD
  5
1EE
330
1
100
AcDbSymbolTableRecord
100
AcDbBlockTableRecord
  2
*D4
340
0
 70
     0
280
     1
281
     0
  0
BLOCK_RECORD
  5
22E
330
1
100
AcDbSymbolTableRecord
100
AcDbBlockTableRecord
  2
*D5
340
0
 70
     0
280
     1
281
     0
  0
BLOCK_RECORD
  5
24C
330
1
100
AcDbSymbolTableRecord
100
AcDbBlockTableRecord
  2
*D6
340
0
 70
     0
280
     1
281
     0
  0
BLOCK_RECORD
  5
26B
330
1
100
AcDbSymbolTableRecord
100
AcDbBlockTableRecord
  2
*D7
340
0
 70
     0
280
     1
281
     0
  0
BLOCK_RECORD
  5
285
330
1
100
AcDbSymbolTableRecord
100
AcDbBlockTableRecord
  2
*D8
340
0
 70
     0
280
     1
281
     0
  0
BLOCK_RECORD
  5
2BB
330
1
100
AcDbSymbolTableRecord
100
AcDbBlockTableRecord
  2
*D9
340
0
 70
     0
280
     1
281
     0
  0
BLOCK_RECORD
  5
2E1
330
1
100
AcDbSymbolTableRecord
100
AcDbBlockTableRecord
  2
*D10
340
0
 70
     0
280
     1
281
     0
  0
BLOCK_RECORD
  5
347
330
1
100
AcDbSymbolTableRecord
100
AcDbBlockTableRecord
  2
*D11
340
0
 70
     0
280
     1
281
     0
  0
BLOCK_RECORD
  5
363
330
1
100
AcDbSymbolTableRecord
100
AcDbBlockTableRecord
  2
*D12
340
0
 70
     0
280
     1
281
     0
  0
BLOCK_RECORD
  5
389
330
1
100
AcDbSymbolTableRecord
100
AcDbBlockTableRecord
  2
*D13
340
0
 70
     0
280
     1
281
     0
  0
BLOCK_RECORD
  5
3BB
330
1
100
AcDbSymbolTableRecord
100
AcDbBlockTableRecord
  2
*D14
340
0
 70
     0
280
     1
281
     0
  0
BLOCK_RECORD
  5
3E7
330
1
100
AcDbSymbolTableRecord
100
AcDbBlockTableRecord
  2
*D15
340
0
 70
     0
280
     1
281
     0
  0
BLOCK_RECORD
  5
3F5
330
1
100
AcDbSymbolTableRecord
100
AcDbBlockTableRecord
  2
*D16
340
0
 70
     0
280
     1
281
     0
  0
BLOCK_RECORD
  5
4B3
330
1
100
AcDbSymbolTableRecord
100
AcDbBlockTableRecord
  2
*D17
340
0
 70
     0
280
     1
281
     0
  0
BLOCK_RECORD
  5
4D2
330
1
100
AcDbSymbolTableRecord
100
AcDbBlockTableRecord
  2
TITLE_BLOCK
340
0
 70
     0
280
     1
281
     0
  0
ENDTAB
  0
ENDSEC
  0
SECTION
  2
BLOCKS
  0
BLOCK
  5
19
330
18
100
AcDbEntity
  8
0
100
AcDbBlockBegin
  2
*MODEL_SPACE
 70
     0
 10
0.0
 20
0.0
 30
0.0
  3
*MODEL_SPACE
  1

  0
ENDBLK
  5
1A
330
18
100
AcDbEntity
  8
0
100
AcDbBlockEnd
  0
BLOCK
  5
16
330
15
100
AcDbEntity
 67
     1
  8
0
100
AcDbBlockBegin
  2
*PAPER_SPACE
 70
     0
 10
0.0
 20
0.0
 30
0.0
  3
*PAPER_SPACE
  1

  0
ENDBLK
  5
17
330
15
100
AcDbEntity
 67
     1
  8
0
100
AcDbBlockEnd
  0
BLOCK
  5
B0
330
2A
100
AcDbEntity
  8
0
100
AcDbBlockBegin
  2
750RAHSG
 70
     0
 10
0.0
 20
0.0
 30
0.0
  3
750RAHSG
  1

  0
LINE
  5
2B
330
2A
100
AcDbEntity
  8
CTR_LINES
100
AcDbLine
 10
0.87877
 20
0.0
 30
0.0
 11
6.905752
 21
0.0
 31
0.0
  0
CIRCLE
  5
2C
330
2A
100
AcDbEntity
  8
0
100
AcDbCircle
 10
5.351887
 20
-1.375
 30
0.0
 40
0.4375
  0
LINE
  5
2D
330
2A
100
AcDbEntity
  8
CTR_LINES
100
AcDbLine
 10
4.242445
 20
-1.375
 30
0.0
 11
6.905752
 21
-1.375
 31
0.0
  0
LINE
  5
2E
330
2A
100
AcDbEntity
  8
0
100
AcDbLine
 10
5.726887
 20
-3.875
 30
0.0
 11
5.421108999999999
 21
-3.875
 31
0.0
  0
LINE
  5
2F
330
2A
100
AcDbEntity
  8
0
100
AcDbLine
 10
2.101887
 20
-4.375
 30
0.0
 11
5.851887
 21
-4.375
 31
0.0
  0
ARC
  5
30
330
2A
100
AcDbEntity
  8
0
100
AcDbCircle
 10
5.351887
 20
-1.375
 30
0.0
 40
0.4375
100
AcDbArc
 50
225.0
 51
45.0
  0
LINE
  5
31
330
2A
100
AcDbEntity
  8
0
100
AcDbLine
 10
4.601386999999999
 20
0.625
 30
0.0
 11
6.476887
 21
0.625
 31
0.0
  0
LINE
  5
32
330
2A
100
AcDbEntity
  8
0
100
AcDbLine
 10
4.598301999999999
 20
1.25
 30
0.0
 11
6.289887
 21
1.25
 31
0.0
  0
ARC
  5
33
330
2A
100
AcDbEntity
  8
0
100
AcDbCircle
 10
5.351887
 20
-1.375
 30
0.0
 40
0.4375
100
AcDbArc
 50
275.697678
 51
354.302322
  0
LINE
  5
34
330
2A
100
AcDbEntity
  8
CTR_LINES
100
AcDbLine
 10
4.242445
 20
-0.75
 30
0.0
 11
6.905752
 21
-0.75
 31
0.0
  0
LINE
  5
35
330
2A
100
AcDbEntity
  8
CTR_LINES
100
AcDbLine
 10
0.87877
 20
-1.375
 30
0.0
 11
6.905752
 21
-1.375
 31
0.0
  0
LINE
  5
36
330
2A
100
AcDbEntity
  8
0
100
AcDbLine
 10
-2.618867999999999
 20
1.688
 30
0.0
 11
-2.618867999999999
 21
-0.8774999999999998
 31
0.0
  0
LINE
  5
37
330
2A
100
AcDbEntity
  8
CTR_LINES
100
AcDbLine
 10
-4.670367999999999
 20
2.255691
 30
0.0
 11
-4.670367999999999
 21
-2.161885999999999
 31
0.0
  0
LINE
  5
38
330
2A
100
AcDbEntity
  8
CTR_LINES
100
AcDbLine
 10
-3.046368
 20
2.255691
 30
0.0
 11
-3.046368
 21
-1.977496
 31
0.0
  0
CIRCLE
  5
39
330
2A
100
AcDbEntity
  8
0
  6
Continuous
100
AcDbCircle
 10
-3.858368
 20
0.0
 30
0.0
 40
0.9252499999999999
  0
LINE
  5
3A
330
2A
100
AcDbEntity
  8
0
100
AcDbLine
 10
-5.119868
 20
1.688
 30
0.0
 11
-5.119868
 21
-1.688
 31
0.0
  0
LINE
  5
3B
330
2A
100
AcDbEntity
  8
CTR_LINES
100
AcDbLine
 10
-3.858368
 20
5.642717
 30
0.0
 11
-3.858368
 21
-5.727851999999999
 31
0.0
  0
LINE
  5
3C
330
2A
100
AcDbEntity
  8
0
100
AcDbLine
 10
-5.119868
 20
0.520728
 30
0.0
 11
-5.119868
 21
-0.520728
 31
0.0
  0
LINE
  5
3D
330
2A
100
AcDbEntity
  8
CTR_LINES
100
AcDbLine
 10
4.726887
 20
2.857699
 30
0.0
 11
4.726887
 21
-1.612511
 31
0.0
  0
LINE
  5
3E
330
2A
100
AcDbEntity
  8
CTR_LINES
100
AcDbLine
 10
2.601887
 20
2.857699
 30
0.0
 11
2.601887
 21
-2.069528
 31
0.0
  0
LINE
  5
3F
330
2A
100
AcDbEntity
  8
CTR_LINES
100
AcDbLine
 10
5.351887
 20
2.857699
 30
0.0
 11
5.351887
 21
-2.000109
 31
0.0
  0
LINE
  5
40
330
2A
100
AcDbEntity
  8
CTR_LINES
100
AcDbLine
 10
3.976886999999999
 20
4.063149
 30
0.0
 11
3.976886999999999
 21
-5.680903999999999
 31
0.0
  0
LINE
  5
41
330
2A
100
AcDbEntity
  8
0
100
AcDbLine
 10
1.101887
 20
1.875
 30
0.0
 11
1.101887
 21
-1.875
 31
0.0
  0
LINE
  5
42
330
2A
100
AcDbEntity
  8
0
100
AcDbLine
 10
-5.119868
 20
-1.8125
 30
0.0
 11
-5.119868
 21
-4.375
 31
0.0
  0
LINE
  5
43
330
2A
100
AcDbEntity
  8
0
100
AcDbLine
 10
-2.618870999999999
 20
-1.8125
 30
0.0
 11
-2.616383
 21
-4.375
 31
0.0
  0
LINE
  5
44
330
2A
100
AcDbEntity
  8
0
100
AcDbLine
 10
-5.119868
 20
-3.935
 30
0.0
 11
-5.119868
 21
-4.375
 31
0.0
  0
LINE
  5
45
330
2A
100
AcDbEntity
  8
0
100
AcDbLine
 10
-5.119868
 20
-4.375
 30
0.0
 11
-2.616383
 21
-4.375
 31
0.0
  0
LINE
  5
46
330
2A
100
AcDbEntity
  8
0
100
AcDbLine
 10
-4.108368
 20
-1.9995
 30
0.0
 11
-4.108368
 21
-3.688
 31
0.0
  0
LINE
  5
47
330
2A
100
AcDbEntity
  8
0
100
AcDbLine
 10
-3.608368
 20
-1.9995
 30
0.0
 11
-3.608368
 21
-3.688
 31
0.0
  0
LINE
  5
48
330
2A
100
AcDbEntity
  8
0
100
AcDbLine
 10
-5.059867999999999
 20
-3.875
 30
0.0
 11
-4.295367999999999
 21
-3.875
 31
0.0
  0
ARC
  5
49
330
2A
100
AcDbEntity
  8
0
100
AcDbCircle
 10
-5.059867999999999
 20
-3.935
 30
0.0
 40
0.06
100
AcDbArc
 50
90.0
 51
180.0
  0
ARC
  5
4A
330
2A
100
AcDbEntity
  8
0
100
AcDbCircle
 10
-4.295367999999999
 20
-3.688
 30
0.0
 40
0.187
100
AcDbArc
 50
270.0
 51
360.0
  0
LINE
  5
4B
330
2A
100
AcDbEntity
  8
0
100
AcDbLine
 10
-3.421368
 20
-3.875
 30
0.0
 11
-2.678868
 21
-3.875
 31
0.0
  0
ARC
  5
4C
330
2A
100
AcDbEntity
  8
0
100
AcDbCircle
 10
-3.421368
 20
-3.688
 30
0.0
 40
0.187
100
AcDbArc
 50
180.0
 51
270.0
  0
LINE
  5
4D
330
2A
100
AcDbEntity
  8
0
100
AcDbLine
 10
-2.618867999999999
 20
-3.935
 30
0.0
 11
-2.616801999999999
 21
-3.942859999999999
 31
0.0
  0
ARC
  5
4E
330
2A
100
AcDbEntity
  8
0
100
AcDbCircle
 10
-2.678868
 20
-3.935
 30
0.0
 40
0.06
100
AcDbArc
 50
360.0
 51
90.0
  0
LINE
  5
4F
330
2A
100
AcDbEntity
  8
0
100
AcDbLine
 10
-4.932868
 20
-1.875
 30
0.0
 11
-2.805868
 21
-1.875
 31
0.0
  0
LINE
  5
50
330
2A
100
AcDbEntity
  8
0
100
AcDbLine
 10
-5.181867999999999
 20
-0.3125
 30
0.0
 11
-5.181867999999999
 21
-1.8125
 31
0.0
  0
CIRCLE
  5
51
330
2A
100
AcDbEntity
  8
0
  6
Continuous
100
AcDbCircle
 10
-4.670367999999999
 20
-1.375
 30
0.0
 40
0.164
  0
LINE
  5
52
330
2A
100
AcDbEntity
  8
0
100
AcDbLine
 10
-5.072398999999999
 20
-1.8125
 30
0.0
 11
-5.181867999999999
 21
-1.8125
 31
0.0
  0
ARC
  5
53
330
2A
100
AcDbEntity
  8
0
100
AcDbCircle
 10
-4.932868
 20
-1.688
 30
0.0
 40
0.187
100
AcDbArc
 50
180.0
 51
270.0
  0
ARC
  5
54
330
2A
100
AcDbEntity
  8
0
100
AcDbCircle
 10
-4.295367999999999
 20
-1.9995
 30
0.0
 40
0.187
100
AcDbArc
 50
360.0
 51
41.74184
  0
ARC
  5
55
330
2A
100
AcDbEntity
  8
0
100
AcDbCircle
 10
-5.179867999999999
 20
-0.8774999999999998
 30
0.0
 40
0.06
100
AcDbArc
 50
270.0
 51
0.0
  0
LINE
  5
56
330
2A
100
AcDbEntity
  8
0
100
AcDbLine
 10
-5.179867999999999
 20
-0.9375
 30
0.0
 11
-5.181867999999999
 21
-0.9375
 31
0.0
  0
LINE
  5
57
330
2A
100
AcDbEntity
  8
0
100
AcDbLine
 10
-5.119868
 20
-0.3125
 30
0.0
 11
-5.181867999999999
 21
-0.3125
 31
0.0
  0
LINE
  5
58
330
2A
100
AcDbEntity
  8
0
100
AcDbLine
 10
-2.618867999999999
 20
-1.688
 30
0.0
 11
-2.618867999999999
 21
-0.8774999999999998
 31
0.0
  0
LINE
  5
59
330
2A
100
AcDbEntity
  8
0
100
AcDbLine
 10
-2.556868
 20
-0.9375
 30
0.0
 11
-2.556868
 21
-1.8125
 31
0.0
  0
LINE
  5
5A
330
2A
100
AcDbEntity
  8
CTR_LINES
100
AcDbLine
 10
-2.519728999999999
 20
-1.375
 30
0.0
 11
-3.443823999999999
 21
-1.375
 31
0.0
  0
LINE
  5
5B
330
2A
100
AcDbEntity
  8
CTR_LINES
100
AcDbLine
 10
-3.046368
 20
-1.375
 30
0.0
 11
-2.519728999999999
 21
-1.375
 31
0.0
  0
ARC
  5
5C
330
2A
100
AcDbEntity
  8
0
100
AcDbCircle
 10
-2.805868
 20
-1.688
 30
0.0
 40
0.187
100
AcDbArc
 50
270.0
 51
360.0
  0
ARC
  5
5D
330
2A
100
AcDbEntity
  8
0
  6
DASHED2
100
AcDbCircle
 10
-3.421368
 20
-1.9995
 30
0.0
 40
0.187
100
AcDbArc
 50
138.25816
 51
180.0
  0
CIRCLE
  5
5E
330
2A
100
AcDbEntity
  8
0
  6
Continuous
100
AcDbCircle
 10
-3.046368
 20
-1.375
 30
0.0
 40
0.164
  0
LINE
  5
5F
330
2A
100
AcDbEntity
  8
0
100
AcDbLine
 10
-2.556868
 20
-1.8125
 30
0.0
 11
-2.666338
 21
-1.8125
 31
0.0
  0
ARC
  5
60
330
2A
100
AcDbEntity
  8
0
100
AcDbCircle
 10
-2.558867999999999
 20
-0.8774999999999998
 30
0.0
 40
0.06
100
AcDbArc
 50
180.0
 51
270.0
  0
LINE
  5
61
330
2A
100
AcDbEntity
  8
0
100
AcDbLine
 10
-2.556868
 20
-0.9375
 30
0.0
 11
-2.558867999999999
 21
-0.9375
 31
0.0
  0
LINE
  5
62
330
2A
100
AcDbEntity
  8
0
100
AcDbLine
 10
2.101887
 20
-4.0
 30
0.0
 11
2.101887
 21
-4.375
 31
0.0
  0
LINE
  5
63
330
2A
100
AcDbEntity
  8
0
100
AcDbLine
 10
1.788886999999999
 20
-0.625
 30
0.0
 11
1.977387
 21
-0.625
 31
0.0
  0
LINE
  5
64
330
2A
100
AcDbEntity
  8
0
100
AcDbLine
 10
1.788886999999999
 20
-1.25
 30
0.0
 11
1.980471999999999
 21
-1.25
 31
0.0
  0
LINE
  5
65
330
2A
100
AcDbEntity
  8
0
100
AcDbLine
 10
1.601887
 20
-0.812
 30
0.0
 11
1.601887
 21
-1.375
 31
0.0
  0
LINE
  5
66
330
2A
100
AcDbEntity
  8
0
  6
DASHED2
100
AcDbLine
 10
1.601887
 20
-0.812
 30
0.0
 11
1.601887
 21
-1.75
 31
0.0
  0
LINE
  5
67
330
2A
100
AcDbEntity
  8
0
  6
DASHED2
100
AcDbLine
 10
1.476887
 20
-1.875
 30
0.0
 11
1.101887
 21
-1.875
 31
0.0
  0
ARC
  5
68
330
2A
100
AcDbEntity
  8
0
100
AcDbCircle
 10
1.476887
 20
-1.75
 30
0.0
 40
0.125
100
AcDbArc
 50
270.0
 51
0.0
  0
ARC
  5
69
330
2A
100
AcDbEntity
  8
0
  6
DASHED2
100
AcDbCircle
 10
1.788886999999999
 20
-1.436999999999999
 30
0.0
 40
0.187
100
AcDbArc
 50
90.0
 51
180.0
  0
LINE
  5
6A
330
2A
100
AcDbEntity
  8
0
100
AcDbLine
 10
1.601887
 20
-1.436999999999999
 30
0.0
 11
1.601887
 21
-1.210999999999999
 31
0.0
  0
LINE
  5
6B
330
2A
100
AcDbEntity
  8
0
100
AcDbLine
 10
1.601887
 20
-1.375
 30
0.0
 11
1.601887
 21
-1.210999999999999
 31
0.0
  0
ARC
  5
6C
330
2A
100
AcDbEntity
  8
0
100
AcDbCircle
 10
1.788886999999999
 20
-0.812
 30
0.0
 40
0.187
100
AcDbArc
 50
90.0
 51
180.0
  0
LINE
  5
6D
330
2A
100
AcDbEntity
  8
0
100
AcDbLine
 10
3.351887
 20
-1.9995
 30
0.0
 11
3.351887
 21
-3.688
 31
0.0
  0
LINE
  5
6E
330
2A
100
AcDbEntity
  8
0
100
AcDbLine
 10
4.601887
 20
-1.9995
 30
0.0
 11
4.601887
 21
-3.688
 31
0.0
  0
LINE
  5
6F
330
2A
100
AcDbEntity
  8
0
100
AcDbLine
 10
2.726887
 20
-1.996415
 30
0.0
 11
2.726887
 21
-3.688
 31
0.0
  0
LINE
  5
70
330
2A
100
AcDbEntity
  8
0
100
AcDbLine
 10
5.226887
 20
-1.996415
 30
0.0
 11
5.226887
 21
-3.688
 31
0.0
  0
LINE
  5
71
330
2A
100
AcDbEntity
  8
0
100
AcDbLine
 10
2.226887
 20
-3.875
 30
0.0
 11
3.164886999999999
 21
-3.875
 31
0.0
  0
ARC
  5
72
330
2A
100
AcDbEntity
  8
0
100
AcDbCircle
 10
2.226887
 20
-4.0
 30
0.0
 40
0.125
100
AcDbArc
 50
90.0
 51
180.0
  0
ARC
  5
73
330
2A
100
AcDbEntity
  8
0
100
AcDbCircle
 10
2.539886999999999
 20
-3.688
 30
0.0
 40
0.187
100
AcDbArc
 50
270.0
 51
0.0
  0
ARC
  5
74
330
2A
100
AcDbEntity
  8
0
100
AcDbCircle
 10
3.164886999999999
 20
-3.688
 30
0.0
 40
0.187
100
AcDbArc
 50
270.0
 51
0.0
  0
ARC
  5
75
330
2A
100
AcDbEntity
  8
0
100
AcDbCircle
 10
4.788886999999999
 20
-3.688
 30
0.0
 40
0.187
100
AcDbArc
 50
180.0
 51
270.0
  0
LINE
  5
76
330
2A
100
AcDbEntity
  8
0
100
AcDbLine
 10
4.788886999999999
 20
-3.875
 30
0.0
 11
5.421108999999999
 21
-3.875
 31
0.0
  0
ARC
  5
77
330
2A
100
AcDbEntity
  8
0
100
AcDbCircle
 10
5.413886999999999
 20
-3.688
 30
0.0
 40
0.187
100
AcDbArc
 50
180.0
 51
270.0
  0
LINE
  5
78
330
2A
100
AcDbEntity
  8
0
100
AcDbLine
 10
2.164387
 20
-1.375
 30
0.0
 11
2.164387
 21
-0.812
 31
0.0
  0
CIRCLE
  5
79
330
2A
100
AcDbEntity
  8
0
100
AcDbCircle
 10
2.601887
 20
-1.375
 30
0.0
 40
0.4375
  0
LINE
  5
7A
330
2A
100
AcDbEntity
  8
0
100
AcDbLine
 10
2.563762
 20
-1.8125
 30
0.0
 11
3.164886999999999
 21
-1.8125
 31
0.0
  0
ARC
  5
7B
330
2A
100
AcDbEntity
  8
0
100
AcDbCircle
 10
2.539886999999999
 20
-1.996415
 30
0.0
 40
0.187
100
AcDbArc
 50
0.0
 51
84.302322
  0
LINE
  5
7C
330
2A
100
AcDbEntity
  8
0
100
AcDbLine
 10
2.601887
 20
-1.8125
 30
0.0
 11
2.573714999999999
 21
-1.8125
 31
0.0
  0
LINE
  5
7D
330
2A
100
AcDbEntity
  8
0
100
AcDbLine
 10
2.558451999999999
 20
-1.810338999999999
 30
0.0
 11
2.522889
 21
-1.795863999999999
 31
0.0
  0
LINE
  5
7E
330
2A
100
AcDbEntity
  8
0
100
AcDbLine
 10
2.558451999999999
 20
-1.810338999999999
 30
0.0
 11
2.558451999999999
 21
-1.810338999999999
 31
0.0
  0
ARC
  5
7F
330
2A
100
AcDbEntity
  8
0
100
AcDbCircle
 10
1.980471999999999
 20
-1.436999999999999
 30
0.0
 40
0.187
100
AcDbArc
 50
5.697677999999999
 51
90.0
  0
CIRCLE
  5
80
330
2A
100
AcDbEntity
  8
0
100
AcDbCircle
 10
2.601887
 20
-1.375
 30
0.0
 40
0.164
  0
ARC
  5
81
330
2A
100
AcDbEntity
  8
0
100
AcDbCircle
 10
3.164886999999999
 20
-1.9995
 30
0.0
 40
0.187
100
AcDbArc
 50
0.0
 51
90.0
  0
ARC
  5
82
330
2A
100
AcDbEntity
  8
0
100
AcDbCircle
 10
1.977387
 20
-0.812
 30
0.0
 40
0.187
100
AcDbArc
 50
0.0
 51
90.0
  0
ARC
  5
83
330
2A
100
AcDbEntity
  8
0
100
AcDbCircle
 10
4.788886999999999
 20
-1.9995
 30
0.0
 40
0.187
100
AcDbArc
 50
90.0
 51
180.0
  0
LINE
  5
84
330
2A
100
AcDbEntity
  8
0
100
AcDbLine
 10
4.788886999999999
 20
-1.8125
 30
0.0
 11
5.351887
 21
-1.8125
 31
0.0
  0
ARC
  5
85
330
2A
100
AcDbEntity
  8
0
100
AcDbCircle
 10
5.413886999999999
 20
-1.996415
 30
0.0
 40
0.187
100
AcDbArc
 50
95.69767799999999
 51
180.0
  0
CIRCLE
  5
86
330
2A
100
AcDbEntity
  8
0
100
AcDbCircle
 10
5.351887
 20
-1.375
 30
0.0
 40
0.164
  0
LINE
  5
87
330
2A
100
AcDbEntity
  8
0
100
AcDbLine
 10
-2.556868
 20
1.811999999999999
 30
0.0
 11
-2.556868
 21
0.937
 31
0.0
  0
LINE
  5
88
330
2A
100
AcDbEntity
  8
0
100
AcDbLine
 10
-5.181867999999999
 20
1.811999999999999
 30
0.0
 11
-5.181867999999999
 21
0.937
 31
0.0
  0
LINE
  5
89
330
2A
100
AcDbEntity
  8
CTR_LINES
100
AcDbLine
 10
-5.504323999999999
 20
1.375
 30
0.0
 11
-2.358483
 21
1.375
 31
0.0
  0
LINE
  5
8A
330
2A
100
AcDbEntity
  8
CTR_LINES
100
AcDbLine
 10
-5.504323999999999
 20
0.0
 30
0.0
 11
-2.28173
 21
0.0
 31
0.0
  0
CIRCLE
  5
8B
330
2A
100
AcDbEntity
  8
0
  6
Continuous
100
AcDbCircle
 10
-4.670367999999999
 20
1.375
 30
0.0
 40
0.164
  0
LINE
  5
8C
330
2A
100
AcDbEntity
  8
0
100
AcDbLine
 10
-5.181867999999999
 20
0.937
 30
0.0
 11
-5.119868
 21
0.937
 31
0.0
  0
ARC
  5
8D
330
2A
100
AcDbEntity
  8
0
  6
DASHED2
100
AcDbCircle
 10
-3.662480999999999
 20
1.062999999999999
 30
0.0
 40
0.187
100
AcDbArc
 50
57.722177
 51
90.0
  0
CIRCLE
  5
8E
330
2A
100
AcDbEntity
  8
0
  6
Continuous
100
AcDbCircle
 10
-3.046368
 20
1.375
 30
0.0
 40
0.164
  0
LINE
  5
8F
330
2A
100
AcDbEntity
  8
0
100
AcDbLine
 10
-2.618867999999999
 20
0.937
 30
0.0
 11
-2.556868
 21
0.937
 31
0.0
  0
LINE
  5
90
330
2A
100
AcDbEntity
  8
0
100
AcDbLine
 10
-4.932868
 20
1.875
 30
0.0
 11
-2.805868
 21
1.875
 31
0.0
  0
ARC
  5
91
330
2A
100
AcDbEntity
  8
0
100
AcDbCircle
 10
-4.932868
 20
1.688
 30
0.0
 40
0.187
100
AcDbArc
 50
90.0
 51
180.0
  0
LINE
  5
92
330
2A
100
AcDbEntity
  8
0
100
AcDbLine
 10
-5.181867999999999
 20
1.811999999999999
 30
0.0
 11
-5.072842999999999
 21
1.811999999999999
 31
0.0
  0
ARC
  5
93
330
2A
100
AcDbEntity
  8
0
100
AcDbCircle
 10
-2.805868
 20
1.688
 30
0.0
 40
0.187
100
AcDbArc
 50
360.0
 51
90.0
  0
LINE
  5
94
330
2A
100
AcDbEntity
  8
0
100
AcDbLine
 10
-2.665893
 20
1.811999999999999
 30
0.0
 11
-2.556868
 21
1.811999999999999
 31
0.0
  0
LINE
  5
95
330
2A
100
AcDbEntity
  8
CTR_LINES
100
AcDbLine
 10
0.9717259999999999
 20
1.375
 30
0.0
 11
4.611
 21
1.375
 31
0.0
  0
LINE
  5
96
330
2A
100
AcDbEntity
  8
0
100
AcDbLine
 10
1.788886999999999
 20
0.625
 30
0.0
 11
3.352387
 21
0.625
 31
0.0
  0
LINE
  5
97
330
2A
100
AcDbEntity
  8
0
100
AcDbLine
 10
1.788886999999999
 20
1.25
 30
0.0
 11
3.355472
 21
1.25
 31
0.0
  0
LINE
  5
98
330
2A
100
AcDbEntity
  8
CTR_LINES
100
AcDbLine
 10
0.9717259999999999
 20
1.375
 30
0.0
 11
4.611
 21
1.375
 31
0.0
  0
LINE
  5
99
330
2A
100
AcDbEntity
  8
0
100
AcDbLine
 10
1.601887
 20
0.812
 30
0.0
 11
1.601887
 21
1.75
 31
0.0
  0
ARC
  5
9A
330
2A
100
AcDbEntity
  8
0
100
AcDbCircle
 10
1.788886999999999
 20
0.812
 30
0.0
 40
0.187
100
AcDbArc
 50
180.0
 51
270.0
  0
ARC
  5
9B
330
2A
100
AcDbEntity
  8
0
  6
DASHED2
100
AcDbCircle
 10
1.788886999999999
 20
1.436999999999999
 30
0.0
 40
0.187
100
AcDbArc
 50
180.0
 51
270.0
  0
LINE
  5
9C
330
2A
100
AcDbEntity
  8
0
100
AcDbLine
 10
1.101887
 20
1.875
 30
0.0
 11
1.476887
 21
1.875
 31
0.0
  0
ARC
  5
9D
330
2A
100
AcDbEntity
  8
0
100
AcDbCircle
 10
1.476887
 20
1.75
 30
0.0
 40
0.125
100
AcDbArc
 50
0.0
 51
90.0
  0
CIRCLE
  5
9E
330
2A
100
AcDbEntity
  8
0
100
AcDbCircle
 10
3.976886999999999
 20
1.375
 30
0.0
 40
0.4375
  0
ARC
  5
9F
330
2A
100
AcDbEntity
  8
0
100
AcDbCircle
 10
3.352387
 20
0.812
 30
0.0
 40
0.187
100
AcDbArc
 50
270.0
 51
0.0
  0
LINE
  5
A0
330
2A
100
AcDbEntity
  8
0
100
AcDbLine
 10
3.539387
 20
1.375
 30
0.0
 11
3.539387
 21
0.812
 31
0.0
  0
ARC
  5
A1
330
2A
100
AcDbEntity
  8
0
100
AcDbCircle
 10
3.355472
 20
1.436999999999999
 30
0.0
 40
0.187
100
AcDbArc
 50
270.0
 51
354.302322
  0
ARC
  5
A2
330
2A
100
AcDbEntity
  8
0
100
AcDbCircle
 10
4.601386999999999
 20
0.812
 30
0.0
 40
0.187
100
AcDbArc
 50
180.0
 51
270.0
  0
LINE
  5
A3
330
2A
100
AcDbEntity
  8
0
100
AcDbLine
 10
4.414387
 20
1.375
 30
0.0
 11
4.414387
 21
0.812
 31
0.0
  0
CIRCLE
  5
A4
330
2A
100
AcDbEntity
  8
0
100
AcDbCircle
 10
3.976886999999999
 20
1.375
 30
0.0
 40
0.164
  0
ARC
  5
A5
330
2A
100
AcDbEntity
  8
0
100
AcDbCircle
 10
4.598301999999999
 20
1.436999999999999
 30
0.0
 40
0.187
100
AcDbArc
 50
185.697678
 51
270.0
  0
LINE
  5
A6
330
2A
100
AcDbEntity
  8
0
100
AcDbLine
 10
6.476887
 20
1.062999999999999
 30
0.0
 11
6.476887
 21
-1.062999999999999
 31
0.0
  0
LINE
  5
A7
330
2A
100
AcDbEntity
  8
0
100
AcDbLine
 10
5.851887
 20
-4.0
 30
0.0
 11
5.851887
 21
-4.375
 31
0.0
  0
ARC
  5
A8
330
2A
100
AcDbEntity
  8
0
100
AcDbCircle
 10
5.726887
 20
-4.0
 30
0.0
 40
0.125
100
AcDbArc
 50
360.0
 51
90.0
  0
ARC
  5
A9
330
2A
100
AcDbEntity
  8
0
100
AcDbCircle
 10
6.289887
 20
-1.062999999999999
 30
0.0
 40
0.187
100
AcDbArc
 50
270.0
 51
360.0
  0
LINE
  5
AA
330
2A
100
AcDbEntity
  8
0
100
AcDbLine
 10
5.789387
 20
-1.375
 30
0.0
 11
5.789387
 21
-0.812
 31
0.0
  0
LINE
  5
AB
330
2A
100
AcDbEntity
  8
0
100
AcDbLine
 10
5.973301999999999
 20
-1.25
 30
0.0
 11
6.289887
 21
-1.25
 31
0.0
  0
ARC
  5
AC
330
2A
100
AcDbEntity
  8
0
100
AcDbCircle
 10
5.973301999999999
 20
-1.436999999999999
 30
0.0
 40
0.187
100
AcDbArc
 50
90.0
 51
174.302322
  0
ARC
  5
AD
330
2A
100
AcDbEntity
  8
0
100
AcDbCircle
 10
5.976386999999999
 20
-0.812
 30
0.0
 40
0.187
100
AcDbArc
 50
90.0
 51
180.0
  0
LINE
  5
AE
330
2A
100
AcDbEntity
  8
0
100
AcDbLine
 10
5.976386999999999
 20
-0.625
 30
0.0
 11
6.476887
 21
-0.625
 31
0.0
  0
ARC
  5
AF
330
2A
100
AcDbEntity
  8
0
100
AcDbCircle
 10
6.289887
 20
1.062999999999999
 30
0.0
 40
0.187
100
AcDbArc
 50
360.0
 51
90.0
  0
ENDBLK
  5
B1
330
2A
100
AcDbEntity
  8
0
100
AcDbBlockEnd
  0
BLOCK
  5
1BE
330
1B0
100
AcDbEntity
  8
0
100
AcDbBlockBegin
  2
*D1
 70
     1
 10
0.0
 20
0.0
 30
0.0
  3
*D1
  1

  0
LINE
  5
1BF
330
1B0
100
AcDbEntity
  8
0
  6
ByBlock
 62
     0
440
 16777216
100
AcDbLine
 10
11.349074
 20
-0.4432600000000001
 30
0.0
 11
11.349074
 21
-1.207031999999999
 31
0.0
  0
LINE
  5
1C0
330
1B0
100
AcDbEntity
  8
0
  6
ByBlock
 62
     0
440
 16777216
100
AcDbLine
 10
11.535074
 20
-0.4432600000000001
 30
0.0
 11
11.535074
 21
-1.207031999999999
 31
0.0
  0
LINE
  5
1C1
330
1B0
100
AcDbEntity
  8
0
  6
ByBlock
 62
     0
440
 16777216
100
AcDbLine
 10
11.199074
 20
-1.027031999999999
 30
0.0
 11
11.049074
 21
-1.027031999999999
 31
0.0
  0
LINE
  5
1C2
330
1B0
100
AcDbEntity
  8
0
  6
ByBlock
 62
     0
440
 16777216
100
AcDbLine
 10
11.685074
 20
-1.027031999999999
 30
0.0
 11
11.835074
 21
-1.027031999999999
 31
0.0
  0
SOLID
  5
1C3
330
1B0
100
AcDbEntity
  8
0
  6
ByBlock
 62
     0
440
 16777216
100
AcDbTrace
 10
11.199074
 20
-1.002032
 30
0.0
 11
11.199074
 21
-1.052032
 31
0.0
 12
11.349074
 22
-1.027031999999999
 32
0.0
 13
11.349074
 23
-1.027031999999999
 33
0.0
  0
SOLID
  5
1C4
330
1B0
100
AcDbEntity
  8
0
  6
ByBlock
 62
     0
440
 16777216
100
AcDbTrace
 10
11.685074
 20
-1.002032
 30
0.0
 11
11.685074
 21
-1.052032
 31
0.0
 12
11.535074
 22
-1.027031999999999
 32
0.0
 13
11.535074
 23
-1.027031999999999
 33
0.0
  0
MTEXT
  5
1C5
330
1B0
100
AcDbEntity
  8
0
  6
ByBlock
 62
     0
440
 16777216
100
AcDbMText
 10
12.610788
 20
-1.027031999999999
 30
0.0
 40
0.15
 41
0.0
 46
0.0
 71
     5
 72
     1
  1
\A1;.187 x .093\PKEYWAY\PTYP.
 73
     1
 44
1.0
  0
POINT
  5
1C6
330
1B0
100
AcDbEntity
  8
DEFPOINTS
  6
ByBlock
 62
     0
440
 16777216
100
AcDbPoint
 10
11.349074
 20
-0.38076
 30
0.0
  0
POINT
  5
1C7
330
1B0
100
AcDbEntity
  8
DEFPOINTS
  6
ByBlock
 62
     0
440
 16777216
100
AcDbPoint
 10
11.535074
 20
-0.38076
 30
0.0
  0
POINT
  5
1C8
330
1B0
100
AcDbEntity
  8
DEFPOINTS
  6
ByBlock
 62
     0
440
 16777216
100
AcDbPoint
 10
11.535074
 20
-1.027031999999999
 30
0.0
  0
ENDBLK
  5
1C9
330
1B0
100
AcDbEntity
  8
0
100
AcDbBlockEnd
  0
BLOCK
  5
1D6
330
1CA
100
AcDbEntity
  8
0
100
AcDbBlockBegin
  2
*D2
 70
     1
 10
0.0
 20
0.0
 30
0.0
  3
*D2
  1

  0
LINE
  5
1D7
330
1CA
100
AcDbEntity
  8
0
  6
ByBlock
 62
     0
440
 16777216
100
AcDbLine
 10
13.829748
 20
3.429301
 30
0.0
 11
13.679748
 21
3.429301
 31
0.0
  0
LINE
  5
1D8
330
1CA
100
AcDbEntity
  8
0
  6
ByBlock
 62
     0
440
 16777216
100
AcDbLine
 10
13.679748
 20
3.429301
 30
0.0
 11
13.029393
 21
4.137903999999999
 31
0.0
  0
MTEXT
  5
1D9
330
1CA
100
AcDbEntity
  8
0
  6
ByBlock
 62
     0
440
 16777216
100
AcDbMText
 10
14.576891
 20
3.429301
 30
0.0
 40
0.15
 41
0.0
 46
0.0
 71
     5
 72
     1
  1
\A1;∅.328 THRU\PX 3
 73
     1
 44
1.0
  0
SOLID
  5
1DA
330
1CA
100
AcDbEntity
  8
0
  6
ByBlock
 62
     0
440
 16777216
100
AcDbTrace
 10
13.047812
 20
4.154808
 30
0.0
 11
13.010975
 21
4.120998999999999
 31
0.0
 12
12.927967
 22
4.248415
 32
0.0
 13
12.927967
 23
4.248415
 33
0.0
  0
LINE
  5
1DB
330
1CA
100
AcDbEntity
  8
0
  6
ByBlock
 62
     0
440
 16777216
100
AcDbLine
 10
12.727074
 20
4.36924
 30
0.0
 11
12.907074
 21
4.36924
 31
0.0
  0
LINE
  5
1DC
330
1CA
100
AcDbEntity
  8
0
  6
ByBlock
 62
     0
440
 16777216
100
AcDbLine
 10
12.817074
 20
4.279239999999999
 30
0.0
 11
12.817074
 21
4.45924
 31
0.0
  0
POINT
  5
1DD
330
1CA
100
AcDbEntity
  8
DEFPOINTS
  6
ByBlock
 62
     0
440
 16777216
100
AcDbPoint
 10
12.927967
 20
4.248415
 30
0.0
  0
POINT
  5
1DE
330
1CA
100
AcDbEntity
  8
DEFPOINTS
  6
ByBlock
 62
     0
440
 16777216
100
AcDbPoint
 10
12.706181
 20
4.490065
 30
0.0
  0
ENDBLK
  5
1DF
330
1CA
100
AcDbEntity
  8
0
100
AcDbBlockEnd
  0
BLOCK
  5
209
330
1E0
100
AcDbEntity
  8
0
100
AcDbBlockBegin
  2
*D3
 70
     1
 10
0.0
 20
0.0
 30
0.0
  3
*D3
  1

  0
LINE
  5
20A
330
1E0
100
AcDbEntity
  8
0
  6
ByBlock
 62
     0
440
 16777216
100
AcDbLine
 10
8.567073999999999
 20
7.681739999999999
 30
0.0
 11
8.567073999999999
 21
8.376889999999999
 31
0.0
  0
LINE
  5
20B
330
1E0
100
AcDbEntity
  8
0
  6
ByBlock
 62
     0
440
 16777216
100
AcDbLine
 10
11.442074
 20
7.795128
 30
0.0
 11
11.442074
 21
8.376889999999999
 31
0.0
  0
LINE
  5
20C
330
1E0
100
AcDbEntity
  8
0
  6
ByBlock
 62
     0
440
 16777216
100
AcDbLine
 10
8.717074
 20
8.196889999999999
 30
0.0
 11
9.614574000000001
 21
8.196889999999999
 31
0.0
  0
LINE
  5
20D
330
1E0
100
AcDbEntity
  8
0
  6
ByBlock
 62
     0
440
 16777216
100
AcDbLine
 10
11.292074
 20
8.196889999999999
 30
0.0
 11
10.394574
 21
8.196889999999999
 31
0.0
  0
SOLID
  5
20E
330
1E0
100
AcDbEntity
  8
0
  6
ByBlock
 62
     0
440
 16777216
100
AcDbTrace
 10
8.717074
 20
8.22189
 30
0.0
 11
8.717074
 21
8.171889999999999
 31
0.0
 12
8.567073999999999
 22
8.196889999999999
 32
0.0
 13
8.567073999999999
 23
8.196889999999999
 33
0.0
  0
SOLID
  5
20F
330
1E0
100
AcDbEntity
  8
0
  6
ByBlock
 62
     0
440
 16777216
100
AcDbTrace
 10
11.292074
 20
8.22189
 30
0.0
 11
11.292074
 21
8.171889999999999
 31
0.0
 12
11.442074
 22
8.196889999999999
 32
0.0
 13
11.442074
 23
8.196889999999999
 33
0.0
  0
MTEXT
  5
210
330
1E0
100
AcDbEntity
  8
0
  6
ByBlock
 62
     0
440
 16777216
100
AcDbMText
 10
10.004574
 20
8.196889999999999
 30
0.0
 40
0.15
 41
0.0
 46
0.0
 71
     5
 72
     1
  1
\A1;2.875\PTYP.
 73
     1
 44
1.0
  0
POINT
  5
211
330
1E0
100
AcDbEntity
  8
DEFPOINTS
  6
ByBlock
 62
     0
440
 16777216
100
AcDbPoint
 10
8.567073999999999
 20
7.619239999999999
 30
0.0
  0
POINT
  5
212
330
1E0
100
AcDbEntity
  8
DEFPOINTS
  6
ByBlock
 62
     0
440
 16777216
100
AcDbPoint
 10
11.442074
 20
7.732628
 30
0.0
  0
POINT
  5
213
330
1E0
100
AcDbEntity
  8
DEFPOINTS
  6
ByBlock
 62
     0
440
 16777216
100
AcDbPoint
 10
11.442074
 20
8.196889999999999
 30
0.0
  0
ENDBLK
  5
214
330
1E0
100
AcDbEntity
  8
0
100
AcDbBlockEnd
  0
BLOCK
  5
215
330
1EE
100
AcDbEntity
  8
0
100
AcDbBlockBegin
  2
*D4
 70
     1
 10
0.0
 20
0.0
 30
0.0
  3
*D4
  1

  0
LINE
  5
216
330
1EE
100
AcDbEntity
  8
0
  6
ByBlock
 62
     0
440
 16777216
100
AcDbLine
 10
12.817074
 20
7.260442999999999
 30
0.0
 11
12.817074
 21
8.376889999999999
 31
0.0
  0
LINE
  5
217
330
1EE
100
AcDbEntity
  8
0
  6
ByBlock
 62
     0
440
 16777216
100
AcDbLine
 10
11.592074
 20
8.196889999999999
 30
0.0
 11
11.750288
 21
8.196889999999999
 31
0.0
  0
LINE
  5
218
330
1EE
100
AcDbEntity
  8
0
  6
ByBlock
 62
     0
440
 16777216
100
AcDbLine
 10
12.667074
 20
8.196889999999999
 30
0.0
 11
12.508859
 21
8.196889999999999
 31
0.0
  0
SOLID
  5
219
330
1EE
100
AcDbEntity
  8
0
  6
ByBlock
 62
     0
440
 16777216
100
AcDbTrace
 10
11.592074
 20
8.22189
 30
0.0
 11
11.592074
 21
8.171889999999999
 31
0.0
 12
11.442074
 22
8.196889999999999
 32
0.0
 13
11.442074
 23
8.196889999999999
 33
0.0
  0
SOLID
  5
21A
330
1EE
100
AcDbEntity
  8
0
  6
ByBlock
 62
     0
440
 16777216
100
AcDbTrace
 10
12.667074
 20
8.22189
 30
0.0
 11
12.667074
 21
8.171889999999999
 31
0.0
 12
12.817074
 22
8.196889999999999
 32
0.0
 13
12.817074
 23
8.196889999999999
 33
0.0
  0
MTEXT
  5
21B
330
1EE
100
AcDbEntity
  8
0
  6
ByBlock
 62
     0
440
 16777216
100
AcDbMText
 10
12.129574
 20
8.196889999999999
 30
0.0
 40
0.15
 41
0.0
 46
0.0
 71
     5
 72
     1
  1
\A1;1.375\PTYP.
 73
     1
 44
1.0
  0
POINT
  5
21C
330
1EE
100
AcDbEntity
  8
DEFPOINTS
  6
ByBlock
 62
     0
440
 16777216
100
AcDbPoint
 10
11.442074
 20
7.732628
 30
0.0
  0
POINT
  5
21D
330
1EE
100
AcDbEntity
  8
DEFPOINTS
  6
ByBlock
 62
     0
440
 16777216
100
AcDbPoint
 10
12.817074
 20
7.197942999999999
 30
0.0
  0
POINT
  5
21E
330
1EE
100
AcDbEntity
  8
DEFPOINTS
  6
ByBlock
 62
     0
440
 16777216
100
AcDbPoint
 10
12.817074
 20
8.196889999999999
 30
0.0
  0
ENDBLK
  5
21F
330
1EE
100
AcDbEntity
  8
0
100
AcDbBlockEnd
  0
BLOCK
  5
23C
330
22E
100
AcDbEntity
  8
0
100
AcDbBlockBegin
  2
*D5
 70
     1
 10
0.0
 20
0.0
 30
0.0
  3
*D5
  1

  0
LINE
  5
23D
330
22E
100
AcDbEntity
  8
0
  6
ByBlock
 62
     0
440
 16777216
100
AcDbLine
 10
11.034574
 20
-0.38076
 30
0.0
 11
8.920977999999999
 21
-0.38076
 31
0.0
  0
LINE
  5
23E
330
22E
100
AcDbEntity
  8
0
  6
ByBlock
 62
     0
440
 16777216
100
AcDbLine
 10
9.504573999999999
 20
1.36924
 30
0.0
 11
8.920977999999999
 21
1.36924
 31
0.0
  0
LINE
  5
23F
330
22E
100
AcDbEntity
  8
0
  6
ByBlock
 62
     0
440
 16777216
100
AcDbLine
 10
9.100977999999999
 20
-0.23076
 30
0.0
 11
9.100977999999999
 21
0.20424
 31
0.0
  0
LINE
  5
240
330
22E
100
AcDbEntity
  8
0
  6
ByBlock
 62
     0
440
 16777216
100
AcDbLine
 10
9.100977999999999
 20
1.219239999999999
 30
0.0
 11
9.100977999999999
 21
0.78424
 31
0.0
  0
SOLID
  5
241
330
22E
100
AcDbEntity
  8
0
  6
ByBlock
 62
     0
440
 16777216
100
AcDbTrace
 10
9.075977999999999
 20
-0.23076
 30
0.0
 11
9.125977999999999
 21
-0.23076
 31
0.0
 12
9.100977999999999
 22
-0.38076
 32
0.0
 13
9.100977999999999
 23
-0.38076
 33
0.0
  0
SOLID
  5
242
330
22E
100
AcDbEntity
  8
0
  6
ByBlock
 62
     0
440
 16777216
100
AcDbTrace
 10
9.075977999999999
 20
1.219239999999999
 30
0.0
 11
9.125977999999999
 21
1.219239999999999
 31
0.0
 12
9.100977999999999
 22
1.36924
 32
0.0
 13
9.100977999999999
 23
1.36924
 33
0.0
  0
MTEXT
  5
243
330
22E
100
AcDbEntity
  8
0
  6
ByBlock
 62
     0
440
 16777216
100
AcDbMText
 10
9.100977999999999
 20
0.49424
 30
0.0
 40
0.15
 41
0.0
 46
0.0
 71
     5
 72
     1
  1
\A1;1.750\PTYP.
 73
     1
 44
1.0
  0
POINT
  5
244
330
22E
100
AcDbEntity
  8
DEFPOINTS
  6
ByBlock
 62
     0
440
 16777216
100
AcDbPoint
 10
11.097074
 20
-0.38076
 30
0.0
  0
POINT
  5
245
330
22E
100
AcDbEntity
  8
DEFPOINTS
  6
ByBlock
 62
     0
440
 16777216
100
AcDbPoint
 10
9.567073999999999
 20
1.36924
 30
0.0
  0
POINT
  5
246
330
22E
100
AcDbEntity
  8
DEFPOINTS
  6
ByBlock
 62
     0
440
 16777216
100
AcDbPoint
 10
9.100977999999999
 20
1.36924
 30
0.0
  0
ENDBLK
  5
247
330
22E
100
AcDbEntity
  8
0
100
AcDbBlockEnd
  0
BLOCK
  5
25A
330
24C
100
AcDbEntity
  8
0
100
AcDbBlockBegin
  2
*D6
 70
     1
 10
0.0
 20
0.0
 30
0.0
  3
*D6
  1

  0
LINE
  5
25B
330
24C
100
AcDbEntity
  8
0
  6
ByBlock
 62
     0
440
 16777216
100
AcDbLine
 10
6.817074
 20
6.15174
 30
0.0
 11
6.817074
 21
9.129805000000001
 31
0.0
  0
LINE
  5
25C
330
24C
100
AcDbEntity
  8
0
  6
ByBlock
 62
     0
440
 16777216
100
AcDbLine
 10
13.786074
 20
6.931739999999999
 30
0.0
 11
13.786074
 21
9.129805000000001
 31
0.0
  0
LINE
  5
25D
330
24C
100
AcDbEntity
  8
0
  6
ByBlock
 62
     0
440
 16777216
100
AcDbLine
 10
6.967074
 20
8.949804999999999
 30
0.0
 11
9.986574
 21
8.949804999999999
 31
0.0
  0
LINE
  5
25E
330
24C
100
AcDbEntity
  8
0
  6
ByBlock
 62
     0
440
 16777216
100
AcDbLine
 10
13.636074
 20
8.949804999999999
 30
0.0
 11
10.616574
 21
8.949804999999999
 31
0.0
  0
SOLID
  5
25F
330
24C
100
AcDbEntity
  8
0
  6
ByBlock
 62
     0
440
 16777216
100
AcDbTrace
 10
6.967074
 20
8.974804999999999
 30
0.0
 11
6.967074
 21
8.924805
 31
0.0
 12
6.817074
 22
8.949804999999999
 32
0.0
 13
6.817074
 23
8.949804999999999
 33
0.0
  0
SOLID
  5
260
330
24C
100
AcDbEntity
  8
0
  6
ByBlock
 62
     0
440
 16777216
100
AcDbTrace
 10
13.636074
 20
8.974804999999999
 30
0.0
 11
13.636074
 21
8.924805
 31
0.0
 12
13.786074
 22
8.949804999999999
 32
0.0
 13
13.786074
 23
8.949804999999999
 33
0.0
  0
MTEXT
  5
261
330
24C
100
AcDbEntity
  8
0
  6
ByBlock
 62
     0
440
 16777216
100
AcDbMText
 10
10.301574
 20
8.949804999999999
 30
0.0
 40
0.15
 41
0.0
 46
0.0
 71
     5
 72
     1
  1
\A1;6.97
 73
     1
 44
1.0
  0
POINT
  5
262
330
24C
100
AcDbEntity
  8
DEFPOINTS
  6
ByBlock
 62
     0
440
 16777216
100
AcDbPoint
 10
6.817074
 20
6.08924
 30
0.0
  0
POINT
  5
263
330
24C
100
AcDbEntity
  8
DEFPOINTS
  6
ByBlock
 62
     0
440
 16777216
100
AcDbPoint
 10
13.786074
 20
6.869239999999999
 30
0.0
  0
POINT
  5
264
330
24C
100
AcDbEntity
  8
DEFPOINTS
  6
ByBlock
 62
     0
440
 16777216
100
AcDbPoint
 10
13.786074
 20
8.949804999999999
 30
0.0
  0
ENDBLK
  5
265
330
24C
100
AcDbEntity
  8
0
100
AcDbBlockEnd
  0
BLOCK
  5
279
330
26B
100
AcDbEntity
  8
0
100
AcDbBlockBegin
  2
*D7
 70
     1
 10
0.0
 20
0.0
 30
0.0
  3
*D7
  1

  0
LINE
  5
27A
330
26B
100
AcDbEntity
  8
0
  6
ByBlock
 62
     0
440
 16777216
100
AcDbLine
 10
6.532582999999999
 20
5.74424
 30
0.0
 11
5.791583
 21
5.74424
 31
0.0
  0
LINE
  5
27B
330
26B
100
AcDbEntity
  8
0
  6
ByBlock
 62
     0
440
 16777216
100
AcDbLine
 10
8.374413
 20
7.119239999999999
 30
0.0
 11
5.791583
 21
7.119239999999999
 31
0.0
  0
LINE
  5
27C
330
26B
100
AcDbEntity
  8
0
  6
ByBlock
 62
     0
440
 16777216
100
AcDbLine
 10
5.971582999999999
 20
5.894239999999999
 30
0.0
 11
5.971582999999999
 21
6.14174
 31
0.0
  0
LINE
  5
27D
330
26B
100
AcDbEntity
  8
0
  6
ByBlock
 62
     0
440
 16777216
100
AcDbLine
 10
5.971582999999999
 20
6.969239999999999
 30
0.0
 11
5.971582999999999
 21
6.721739999999999
 31
0.0
  0
SOLID
  5
27E
330
26B
100
AcDbEntity
  8
0
  6
ByBlock
 62
     0
440
 16777216
100
AcDbTrace
 10
5.946583
 20
5.894239999999999
 30
0.0
 11
5.996583
 21
5.894239999999999
 31
0.0
 12
5.971582999999999
 22
5.74424
 32
0.0
 13
5.971582999999999
 23
5.74424
 33
0.0
  0
SOLID
  5
27F
330
26B
100
AcDbEntity
  8
0
  6
ByBlock
 62
     0
440
 16777216
100
AcDbTrace
 10
5.946583
 20
6.969239999999999
 30
0.0
 11
5.996583
 21
6.969239999999999
 31
0.0
 12
5.971582999999999
 22
7.119239999999999
 32
0.0
 13
5.971582999999999
 23
7.119239999999999
 33
0.0
  0
MTEXT
  5
280
330
26B
100
AcDbEntity
  8
0
  6
ByBlock
 62
     0
440
 16777216
100
AcDbMText
 10
5.971582999999999
 20
6.43174
 30
0.0
 40
0.15
 41
0.0
 46
0.0
 71
     5
 72
     1
  1
\A1;1.375\PTYP.
 73
     1
 44
1.0
  0
POINT
  5
281
330
26B
100
AcDbEntity
  8
DEFPOINTS
  6
ByBlock
 62
     0
440
 16777216
100
AcDbPoint
 10
6.595082999999999
 20
5.74424
 30
0.0
  0
POINT
  5
282
330
26B
100
AcDbEntity
  8
DEFPOINTS
  6
ByBlock
 62
     0
440
 16777216
100
AcDbPoint
 10
8.436913
 20
7.119239999999999
 30
0.0
  0
POINT
  5
283
330
26B
100
AcDbEntity
  8
DEFPOINTS
  6
ByBlock
 62
     0
440
 16777216
100
AcDbPoint
 10
5.971582999999999
 20
7.119239999999999
 30
0.0
  0
ENDBLK
  5
284
330
26B
100
AcDbEntity
  8
0
100
AcDbBlockEnd
  0
BLOCK
  5
2AE
330
285
100
AcDbEntity
  8
0
100
AcDbBlockBegin
  2
*D8
 70
     1
 10
0.0
 20
0.0
 30
0.0
  3
*D8
  1

  0
LINE
  5
2AF
330
285
100
AcDbEntity
  8
0
  6
ByBlock
 62
     0
440
 16777216
100
AcDbLine
 10
13.254574
 20
1.86924
 30
0.0
 11
14.118962
 21
1.86924
 31
0.0
  0
LINE
  5
2B0
330
285
100
AcDbEntity
  8
0
  6
ByBlock
 62
     0
440
 16777216
100
AcDbLine
 10
13.379574
 20
1.36924
 30
0.0
 11
14.118962
 21
1.36924
 31
0.0
  0
LINE
  5
2B1
330
285
100
AcDbEntity
  8
0
  6
ByBlock
 62
     0
440
 16777216
100
AcDbLine
 10
13.938962
 20
1.71924
 30
0.0
 11
13.938962
 21
1.519239999999999
 31
0.0
  0
LINE
  5
2B2
330
285
100
AcDbEntity
  8
0
  6
ByBlock
 62
     0
440
 16777216
100
AcDbLine
 10
13.938962
 20
1.36924
 30
0.0
 11
13.938962
 21
0.7520310000000001
 31
0.0
  0
LINE
  5
2B3
330
285
100
AcDbEntity
  8
0
  6
ByBlock
 62
     0
440
 16777216
100
AcDbLine
 10
13.938962
 20
0.7520310000000001
 30
0.0
 11
13.788962
 21
0.7520310000000001
 31
0.0
  0
SOLID
  5
2B4
330
285
100
AcDbEntity
  8
0
  6
ByBlock
 62
     0
440
 16777216
100
AcDbTrace
 10
13.913962
 20
1.71924
 30
0.0
 11
13.963962
 21
1.71924
 31
0.0
 12
13.938962
 22
1.86924
 32
0.0
 13
13.938962
 23
1.86924
 33
0.0
  0
SOLID
  5
2B5
330
285
100
AcDbEntity
  8
0
  6
ByBlock
 62
     0
440
 16777216
100
AcDbTrace
 10
13.913962
 20
1.519239999999999
 30
0.0
 11
13.963962
 21
1.519239999999999
 31
0.0
 12
13.938962
 22
1.36924
 32
0.0
 13
13.938962
 23
1.36924
 33
0.0
  0
MTEXT
  5
2B6
330
285
100
AcDbEntity
  8
0
  6
ByBlock
 62
     0
440
 16777216
100
AcDbMText
 10
13.484676
 20
0.7520310000000001
 30
0.0
 40
0.15
 41
0.0
 46
0.0
 71
     5
 72
     1
  1
\A1;.50\PTYP.
 73
     1
 44
1.0
  0
POINT
  5
2B7
330
285
100
AcDbEntity
  8
DEFPOINTS
  6
ByBlock
 62
     0
440
 16777216
100
AcDbPoint
 10
13.192074
 20
1.86924
 30
0.0
  0
POINT
  5
2B8
330
285
100
AcDbEntity
  8
DEFPOINTS
  6
ByBlock
 62
     0
440
 16777216
100
AcDbPoint
 10
13.317074
 20
1.36924
 30
0.0
  0
POINT
  5
2B9
330
285
100
AcDbEntity
  8
DEFPOINTS
  6
ByBlock
 62
     0
440
 16777216
100
AcDbPoint
 10
13.938962
 20
1.36924
 30
0.0
  0
ENDBLK
  5
2BA
330
285
100
AcDbEntity
  8
0
100
AcDbBlockEnd
  0
BLOCK
  5
2D5
330
2BB
100
AcDbEntity
  8
0
100
AcDbBlockBegin
  2
*D9
 70
     1
 10
0.0
 20
0.0
 30
0.0
  3
*D9
  1

  0
LINE
  5
2D6
330
2BB
100
AcDbEntity
  8
0
  6
ByBlock
 62
     0
440
 16777216
100
AcDbLine
 10
3.484323
 20
5.74424
 30
0.0
 11
4.012455999999999
 21
5.74424
 31
0.0
  0
LINE
  5
2D7
330
2BB
100
AcDbEntity
  8
0
  6
ByBlock
 62
     0
440
 16777216
100
AcDbLine
 10
3.407569
 20
7.119239999999999
 30
0.0
 11
4.012455999999999
 21
7.119239999999999
 31
0.0
  0
LINE
  5
2D8
330
2BB
100
AcDbEntity
  8
0
  6
ByBlock
 62
     0
440
 16777216
100
AcDbLine
 10
3.832455999999999
 20
5.894239999999999
 30
0.0
 11
3.832455999999999
 21
6.14174
 31
0.0
  0
LINE
  5
2D9
330
2BB
100
AcDbEntity
  8
0
  6
ByBlock
 62
     0
440
 16777216
100
AcDbLine
 10
3.832455999999999
 20
6.969239999999999
 30
0.0
 11
3.832455999999999
 21
6.721739999999999
 31
0.0
  0
SOLID
  5
2DA
330
2BB
100
AcDbEntity
  8
0
  6
ByBlock
 62
     0
440
 16777216
100
AcDbTrace
 10
3.807455999999999
 20
5.894239999999999
 30
0.0
 11
3.857455999999999
 21
5.894239999999999
 31
0.0
 12
3.832455999999999
 22
5.74424
 32
0.0
 13
3.832455999999999
 23
5.74424
 33
0.0
  0
SOLID
  5
2DB
330
2BB
100
AcDbEntity
  8
0
  6
ByBlock
 62
     0
440
 16777216
100
AcDbTrace
 10
3.807455999999999
 20
6.969239999999999
 30
0.0
 11
3.857455999999999
 21
6.969239999999999
 31
0.0
 12
3.832455999999999
 22
7.119239999999999
 32
0.0
 13
3.832455999999999
 23
7.119239999999999
 33
0.0
  0
MTEXT
  5
2DC
330
2BB
100
AcDbEntity
  8
0
  6
ByBlock
 62
     0
440
 16777216
100
AcDbMText
 10
3.832455999999999
 20
6.43174
 30
0.0
 40
0.15
 41
0.0
 46
0.0
 71
     5
 72
     1
  1
\A1;1.375\PTYP.
 73
     1
 44
1.0
  0
POINT
  5
2DD
330
2BB
100
AcDbEntity
  8
DEFPOINTS
  6
ByBlock
 62
     0
440
 16777216
100
AcDbPoint
 10
3.421823
 20
5.74424
 30
0.0
  0
POINT
  5
2DE
330
2BB
100
AcDbEntity
  8
DEFPOINTS
  6
ByBlock
 62
     0
440
 16777216
100
AcDbPoint
 10
3.345069
 20
7.119239999999999
 30
0.0
  0
POINT
  5
2DF
330
2BB
100
AcDbEntity
  8
DEFPOINTS
  6
ByBlock
 62
     0
440
 16777216
100
AcDbPoint
 10
3.832455999999999
 20
7.119239999999999
 30
0.0
  0
ENDBLK
  5
2E0
330
2BB
100
AcDbEntity
  8
0
100
AcDbBlockEnd
  0
BLOCK
  5
2FB
330
2E1
100
AcDbEntity
  8
0
100
AcDbBlockBegin
  2
*D10
 70
     1
 10
0.0
 20
0.0
 30
0.0
  3
*D10
  1

  0
LINE
  5
2FC
330
2E1
100
AcDbEntity
  8
0
  6
ByBlock
 62
     0
440
 16777216
100
AcDbLine
 10
1.845183999999999
 20
7.89828
 30
0.0
 11
1.845183999999999
 21
8.439633
 31
0.0
  0
LINE
  5
2FD
330
2E1
100
AcDbEntity
  8
0
  6
ByBlock
 62
     0
440
 16777216
100
AcDbLine
 10
2.657183999999999
 20
7.887589999999999
 30
0.0
 11
2.657183999999999
 21
8.439633
 31
0.0
  0
LINE
  5
2FE
330
2E1
100
AcDbEntity
  8
0
  6
ByBlock
 62
     0
440
 16777216
100
AcDbLine
 10
1.995184
 20
8.259633
 30
0.0
 11
2.507184
 21
8.259633
 31
0.0
  0
LINE
  5
2FF
330
2E1
100
AcDbEntity
  8
0
  6
ByBlock
 62
     0
440
 16777216
100
AcDbLine
 10
2.657183999999999
 20
8.259633
 30
0.0
 11
3.328708999999999
 21
8.259633
 31
0.0
  0
SOLID
  5
300
330
2E1
100
AcDbEntity
  8
0
  6
ByBlock
 62
     0
440
 16777216
100
AcDbTrace
 10
1.995184
 20
8.284632999999999
 30
0.0
 11
1.995184
 21
8.234633
 31
0.0
 12
1.845183999999999
 22
8.259633
 32
0.0
 13
1.845183999999999
 23
8.259633
 33
0.0
  0
SOLID
  5
301
330
2E1
100
AcDbEntity
  8
0
  6
ByBlock
 62
     0
440
 16777216
100
AcDbTrace
 10
2.507184
 20
8.284632999999999
 30
0.0
 11
2.507184
 21
8.234633
 31
0.0
 12
2.657183999999999
 22
8.259633
 32
0.0
 13
2.657183999999999
 23
8.259633
 33
0.0
  0
MTEXT
  5
302
330
2E1
100
AcDbEntity
  8
0
  6
ByBlock
 62
     0
440
 16777216
100
AcDbMText
 10
3.643708999999999
 20
8.259633
 30
0.0
 40
0.15
 41
0.0
 46
0.0
 71
     5
 72
     1
  1
\A1;.812\PTYP.
 73
     1
 44
1.0
  0
POINT
  5
303
330
2E1
100
AcDbEntity
  8
DEFPOINTS
  6
ByBlock
 62
     0
440
 16777216
100
AcDbPoint
 10
1.845183999999999
 20
7.83578
 30
0.0
  0
POINT
  5
304
330
2E1
100
AcDbEntity
  8
DEFPOINTS
  6
ByBlock
 62
     0
440
 16777216
100
AcDbPoint
 10
2.657183999999999
 20
7.825089999999999
 30
0.0
  0
POINT
  5
305
330
2E1
100
AcDbEntity
  8
DEFPOINTS
  6
ByBlock
 62
     0
440
 16777216
100
AcDbPoint
 10
2.657183999999999
 20
8.259633
 30
0.0
  0
ENDBLK
  5
306
330
2E1
100
AcDbEntity
  8
0
100
AcDbBlockEnd
  0
BLOCK
  5
348
330
347
100
AcDbEntity
  8
0
100
AcDbBlockBegin
  2
*D11
 70
     1
 10
0.0
 20
0.0
 30
0.0
  3
*D11
  1

  0
LINE
  5
349
330
347
100
AcDbEntity
  8
0
  6
ByBlock
 62
     0
440
 16777216
100
AcDbLine
 10
0.521184
 20
1.36924
 30
0.0
 11
-0.248306
 21
1.36924
 31
0.0
  0
LINE
  5
34A
330
347
100
AcDbEntity
  8
0
  6
ByBlock
 62
     0
440
 16777216
100
AcDbLine
 10
0.136729
 20
5.74424
 30
0.0
 11
-0.248306
 21
5.74424
 31
0.0
  0
LINE
  5
34B
330
347
100
AcDbEntity
  8
0
  6
ByBlock
 62
     0
440
 16777216
100
AcDbLine
 10
-0.068306
 20
1.519239999999999
 30
0.0
 11
-0.068306
 21
3.391739999999999
 31
0.0
  0
LINE
  5
34C
330
347
100
AcDbEntity
  8
0
  6
ByBlock
 62
     0
440
 16777216
100
AcDbLine
 10
-0.068306
 20
5.59424
 30
0.0
 11
-0.068306
 21
3.72174
 31
0.0
  0
SOLID
  5
34D
330
347
100
AcDbEntity
  8
0
  6
ByBlock
 62
     0
440
 16777216
100
AcDbTrace
 10
-0.093306
 20
1.519239999999999
 30
0.0
 11
-0.043306
 21
1.519239999999999
 31
0.0
 12
-0.068306
 22
1.36924
 32
0.0
 13
-0.068306
 23
1.36924
 33
0.0
  0
SOLID
  5
34E
330
347
100
AcDbEntity
  8
0
  6
ByBlock
 62
     0
440
 16777216
100
AcDbTrace
 10
-0.093306
 20
5.59424
 30
0.0
 11
-0.043306
 21
5.59424
 31
0.0
 12
-0.068306
 22
5.74424
 32
0.0
 13
-0.068306
 23
5.74424
 33
0.0
  0
MTEXT
  5
34F
330
347
100
AcDbEntity
  8
0
  6
ByBlock
 62
     0
440
 16777216
100
AcDbMText
 10
-0.068306
 20
3.55674
 30
0.0
 40
0.15
 41
0.0
 46
0.0
 71
     5
 72
     1
  1
\A1;4.375
 73
     1
 44
1.0
  0
POINT
  5
350
330
347
100
AcDbEntity
  8
DEFPOINTS
  6
ByBlock
 62
     0
440
 16777216
100
AcDbPoint
 10
0.583684
 20
1.36924
 30
0.0
  0
POINT
  5
351
330
347
100
AcDbEntity
  8
DEFPOINTS
  6
ByBlock
 62
     0
440
 16777216
100
AcDbPoint
 10
0.199229
 20
5.74424
 30
0.0
  0
POINT
  5
352
330
347
100
AcDbEntity
  8
DEFPOINTS
  6
ByBlock
 62
     0
440
 16777216
100
AcDbPoint
 10
-0.068306
 20
5.74424
 30
0.0
  0
ENDBLK
  5
353
330
347
100
AcDbEntity
  8
0
100
AcDbBlockEnd
  0
BLOCK
  5
37D
330
363
100
AcDbEntity
  8
0
100
AcDbBlockBegin
  2
*D12
 70
     1
 10
0.0
 20
0.0
 30
0.0
  3
*D12
  1

  0
LINE
  5
37E
330
363
100
AcDbEntity
  8
0
  6
ByBlock
 62
     0
440
 16777216
100
AcDbLine
 10
1.437683999999999
 20
-0.38076
 30
0.0
 11
-1.003292
 21
-0.38076
 31
0.0
  0
LINE
  5
37F
330
363
100
AcDbEntity
  8
0
  6
ByBlock
 62
     0
440
 16777216
100
AcDbLine
 10
0.4591840000000001
 20
7.556239999999999
 30
0.0
 11
-1.003292
 21
7.556239999999999
 31
0.0
  0
LINE
  5
380
330
363
100
AcDbEntity
  8
0
  6
ByBlock
 62
     0
440
 16777216
100
AcDbLine
 10
-0.823292
 20
-0.23076
 30
0.0
 11
-0.823292
 21
4.51829
 31
0.0
  0
LINE
  5
381
330
363
100
AcDbEntity
  8
0
  6
ByBlock
 62
     0
440
 16777216
100
AcDbLine
 10
-0.823292
 20
7.406239999999999
 30
0.0
 11
-0.823292
 21
4.84829
 31
0.0
  0
SOLID
  5
382
330
363
100
AcDbEntity
  8
0
  6
ByBlock
 62
     0
440
 16777216
100
AcDbTrace
 10
-0.848292
 20
-0.23076
 30
0.0
 11
-0.798292
 21
-0.23076
 31
0.0
 12
-0.823292
 22
-0.38076
 32
0.0
 13
-0.823292
 23
-0.38076
 33
0.0
  0
SOLID
  5
383
330
363
100
AcDbEntity
  8
0
  6
ByBlock
 62
     0
440
 16777216
100
AcDbTrace
 10
-0.848292
 20
7.406239999999999
 30
0.0
 11
-0.798292
 21
7.406239999999999
 31
0.0
 12
-0.823292
 22
7.556239999999999
 32
0.0
 13
-0.823292
 23
7.556239999999999
 33
0.0
  0
MTEXT
  5
384
330
363
100
AcDbEntity
  8
0
  6
ByBlock
 62
     0
440
 16777216
100
AcDbMText
 10
-0.823292
 20
4.68329
 30
0.0
 40
0.15
 41
0.0
 46
0.0
 71
     5
 72
     1
  1
\A1;7.94
 73
     1
 44
1.0
  0
POINT
  5
385
330
363
100
AcDbEntity
  8
DEFPOINTS
  6
ByBlock
 62
     0
440
 16777216
100
AcDbPoint
 10
1.500183999999999
 20
-0.38076
 30
0.0
  0
POINT
  5
386
330
363
100
AcDbEntity
  8
DEFPOINTS
  6
ByBlock
 62
     0
440
 16777216
100
AcDbPoint
 10
0.5216840000000001
 20
7.556239999999999
 30
0.0
  0
POINT
  5
387
330
363
100
AcDbEntity
  8
DEFPOINTS
  6
ByBlock
 62
     0
440
 16777216
100
AcDbPoint
 10
-0.823292
 20
7.556239999999999
 30
0.0
  0
ENDBLK
  5
388
330
363
100
AcDbEntity
  8
0
100
AcDbBlockEnd
  0
BLOCK
  5
3AF
330
389
100
AcDbEntity
  8
0
100
AcDbBlockBegin
  2
*D13
 70
     1
 10
0.0
 20
0.0
 30
0.0
  3
*D13
  1

  0
LINE
  5
3B0
330
389
100
AcDbEntity
  8
0
  6
ByBlock
 62
     0
440
 16777216
100
AcDbLine
 10
2.220184
 20
-0.41326
 30
0.0
 11
2.220184
 21
-1.215127999999999
 31
0.0
  0
LINE
  5
3B1
330
389
100
AcDbEntity
  8
0
  6
ByBlock
 62
     0
440
 16777216
100
AcDbLine
 10
1.470183999999999
 20
-0.41326
 30
0.0
 11
1.470183999999999
 21
-1.215127999999999
 31
0.0
  0
LINE
  5
3B2
330
389
100
AcDbEntity
  8
0
  6
ByBlock
 62
     0
440
 16777216
100
AcDbLine
 10
2.070183999999999
 20
-1.035128
 30
0.0
 11
1.620184
 21
-1.035128
 31
0.0
  0
LINE
  5
3B3
330
389
100
AcDbEntity
  8
0
  6
ByBlock
 62
     0
440
 16777216
100
AcDbLine
 10
1.470183999999999
 20
-1.035128
 30
0.0
 11
0.8605870000000001
 21
-1.035128
 31
0.0
  0
SOLID
  5
3B4
330
389
100
AcDbEntity
  8
0
  6
ByBlock
 62
     0
440
 16777216
100
AcDbTrace
 10
2.070183999999999
 20
-1.010128
 30
0.0
 11
2.070183999999999
 21
-1.060127999999999
 31
0.0
 12
2.220184
 22
-1.035128
 32
0.0
 13
2.220184
 23
-1.035128
 33
0.0
  0
SOLID
  5
3B5
330
389
100
AcDbEntity
  8
0
  6
ByBlock
 62
     0
440
 16777216
100
AcDbTrace
 10
1.620184
 20
-1.010128
 30
0.0
 11
1.620184
 21
-1.060127999999999
 31
0.0
 12
1.470183999999999
 22
-1.035128
 32
0.0
 13
1.470183999999999
 23
-1.035128
 33
0.0
  0
MTEXT
  5
3B6
330
389
100
AcDbEntity
  8
0
  6
ByBlock
 62
     0
440
 16777216
100
AcDbMText
 10
0.4741590000000001
 20
-1.035128
 30
0.0
 40
0.15
 41
0.0
 46
0.0
 71
     5
 72
     1
  1
\A1;∅.750\PTYP.
 73
     1
 44
1.0
  0
POINT
  5
3B7
330
389
100
AcDbEntity
  8
DEFPOINTS
  6
ByBlock
 62
     0
440
 16777216
100
AcDbPoint
 10
2.220184
 20
-0.35076
 30
0.0
  0
POINT
  5
3B8
330
389
100
AcDbEntity
  8
DEFPOINTS
  6
ByBlock
 62
     0
440
 16777216
100
AcDbPoint
 10
1.470183999999999
 20
-0.35076
 30
0.0
  0
POINT
  5
3B9
330
389
100
AcDbEntity
  8
DEFPOINTS
  6
ByBlock
 62
     0
440
 16777216
100
AcDbPoint
 10
1.470183999999999
 20
-1.035128
 30
0.0
  0
ENDBLK
  5
3BA
330
389
100
AcDbEntity
  8
0
100
AcDbBlockEnd
  0
BLOCK
  5
3C7
330
3BB
100
AcDbEntity
  8
0
100
AcDbBlockBegin
  2
*D14
 70
     1
 10
0.0
 20
0.0
 30
0.0
  3
*D14
  1

  0
LINE
  5
3C8
330
3BB
100
AcDbEntity
  8
0
  6
ByBlock
 62
     0
440
 16777216
100
AcDbLine
 10
4.147718
 20
3.541630999999999
 30
0.0
 11
3.997717999999999
 21
3.541630999999999
 31
0.0
  0
LINE
  5
3C9
330
3BB
100
AcDbEntity
  8
0
  6
ByBlock
 62
     0
440
 16777216
100
AcDbLine
 10
3.997717999999999
 20
3.541630999999999
 30
0.0
 11
2.924367999999999
 21
4.204288
 31
0.0
  0
MTEXT
  5
3CA
330
3BB
100
AcDbEntity
  8
0
  6
ByBlock
 62
     0
440
 16777216
100
AcDbMText
 10
4.894859999999999
 20
3.541630999999999
 30
0.0
 40
0.15
 41
0.0
 46
0.0
 71
     5
 72
     1
  1
\A1;∅.328 THRU\PX 4\PTYP.
 73
     1
 44
1.0
  0
SOLID
  5
3CB
330
3BB
100
AcDbEntity
  8
0
  6
ByBlock
 62
     0
440
 16777216
100
AcDbTrace
 10
2.937500999999999
 20
4.225559999999999
 30
0.0
 11
2.911233999999999
 21
4.183015
 31
0.0
 12
2.796731999999999
 22
4.283087
 32
0.0
 13
2.796731999999999
 23
4.283087
 33
0.0
  0
LINE
  5
3CC
330
3BB
100
AcDbEntity
  8
0
  6
ByBlock
 62
     0
440
 16777216
100
AcDbLine
 10
2.567184
 20
4.36924
 30
0.0
 11
2.747183999999999
 21
4.36924
 31
0.0
  0
LINE
  5
3CD
330
3BB
100
AcDbEntity
  8
0
  6
ByBlock
 62
     0
440
 16777216
100
AcDbLine
 10
2.657183999999999
 20
4.279239999999999
 30
0.0
 11
2.657183999999999
 21
4.45924
 31
0.0
  0
POINT
  5
3CE
330
3BB
100
AcDbEntity
  8
DEFPOINTS
  6
ByBlock
 62
     0
440
 16777216
100
AcDbPoint
 10
2.796731999999999
 20
4.283087
 30
0.0
  0
POINT
  5
3CF
330
3BB
100
AcDbEntity
  8
DEFPOINTS
  6
ByBlock
 62
     0
440
 16777216
100
AcDbPoint
 10
2.517635999999999
 20
4.455392999999999
 30
0.0
  0
ENDBLK
  5
3D0
330
3BB
100
AcDbEntity
  8
0
100
AcDbBlockEnd
  0
BLOCK
  5
41B
330
3E7
100
AcDbEntity
  8
0
100
AcDbBlockBegin
  2
*D15
 70
     1
 10
0.0
 20
0.0
 30
0.0
  3
*D15
  1

  0
LINE
  5
41C
330
3E7
100
AcDbEntity
  8
0
  6
ByBlock
 62
     0
440
 16777216
100
AcDbLine
 10
3.157183999999999
 20
7.618739999999999
 30
0.0
 11
3.157183999999999
 21
9.329888
 31
0.0
  0
LINE
  5
41D
330
3E7
100
AcDbEntity
  8
0
  6
ByBlock
 62
     0
440
 16777216
100
AcDbLine
 10
1.845183999999999
 20
7.89828
 30
0.0
 11
1.845183999999999
 21
9.329888
 31
0.0
  0
LINE
  5
41E
330
3E7
100
AcDbEntity
  8
0
  6
ByBlock
 62
     0
440
 16777216
100
AcDbLine
 10
1.995184
 20
9.149888
 30
0.0
 11
3.007184
 21
9.149888
 31
0.0
  0
LINE
  5
41F
330
3E7
100
AcDbEntity
  8
0
  6
ByBlock
 62
     0
440
 16777216
100
AcDbLine
 10
3.157183999999999
 20
9.149888
 30
0.0
 11
3.493905999999999
 21
9.149888
 31
0.0
  0
SOLID
  5
420
330
3E7
100
AcDbEntity
  8
0
  6
ByBlock
 62
     0
440
 16777216
100
AcDbTrace
 10
1.995184
 20
9.174888000000001
 30
0.0
 11
1.995184
 21
9.124888
 31
0.0
 12
1.845183999999999
 22
9.149888
 32
0.0
 13
1.845183999999999
 23
9.149888
 33
0.0
  0
SOLID
  5
421
330
3E7
100
AcDbEntity
  8
0
  6
ByBlock
 62
     0
440
 16777216
100
AcDbTrace
 10
3.007184
 20
9.174888000000001
 30
0.0
 11
3.007184
 21
9.124888
 31
0.0
 12
3.157183999999999
 22
9.149888
 32
0.0
 13
3.157183999999999
 23
9.149888
 33
0.0
  0
MTEXT
  5
422
330
3E7
100
AcDbEntity
  8
0
  6
ByBlock
 62
     0
440
 16777216
100
AcDbMText
 10
3.873191
 20
9.149888
 30
0.0
 40
0.15
 41
0.0
 46
0.0
 71
     5
 72
     1
  1
\A1;1.312\PTYP.
 73
     1
 44
1.0
  0
POINT
  5
423
330
3E7
100
AcDbEntity
  8
DEFPOINTS
  6
ByBlock
 62
     0
440
 16777216
100
AcDbPoint
 10
3.157183999999999
 20
7.556239999999999
 30
0.0
  0
POINT
  5
424
330
3E7
100
AcDbEntity
  8
DEFPOINTS
  6
ByBlock
 62
     0
440
 16777216
100
AcDbPoint
 10
1.845183999999999
 20
7.83578
 30
0.0
  0
POINT
  5
425
330
3E7
100
AcDbEntity
  8
DEFPOINTS
  6
ByBlock
 62
     0
440
 16777216
100
AcDbPoint
 10
1.845183999999999
 20
9.149888
 30
0.0
  0
ENDBLK
  5
426
330
3E7
100
AcDbEntity
  8
0
100
AcDbBlockEnd
  0
BLOCK
  5
3F6
330
3F5
100
AcDbEntity
  8
0
100
AcDbBlockBegin
  2
*D16
 70
     1
 10
0.0
 20
0.0
 30
0.0
  3
*D16
  1

  0
LINE
  5
572
330
3F5
100
AcDbEntity
  8
DIMS_TEXT
 62
     0
440
 16777216
370
    -2
100
AcDbLine
 10
0.533184
 20
7.618739999999999
 30
0.0
 11
0.5331840000000002
 21
9.945461999999999
 31
0.0
  0
LINE
  5
573
330
3F5
100
AcDbEntity
  8
DIMS_TEXT
 62
     0
440
 16777216
370
    -2
100
AcDbLine
 10
3.157183999999999
 20
7.618739999999999
 30
0.0
 11
3.157183999999999
 21
9.945461999999999
 31
0.0
  0
LINE
  5
574
330
3F5
100
AcDbEntity
  8
DIMS_TEXT
 62
     0
440
 16777216
370
    -2
100
AcDbLine
 10
0.6831840000000002
 20
9.765461999999999
 30
0.0
 11
1.455184
 21
9.765461999999999
 31
0.0
  0
LINE
  5
575
330
3F5
100
AcDbEntity
  8
DIMS_TEXT
 62
     0
440
 16777216
370
    -2
100
AcDbLine
 10
3.007184
 20
9.765461999999999
 30
0.0
 11
2.235184
 21
9.765461999999999
 31
0.0
  0
SOLID
  5
576
330
3F5
100
AcDbEntity
  8
DIMS_TEXT
 62
     0
440
 16777216
100
AcDbTrace
 10
0.6831840000000002
 20
9.790461999999999
 30
0.0
 11
0.6831840000000002
 21
9.740461999999999
 31
0.0
 12
0.5331840000000002
 22
9.765461999999999
 32
0.0
 13
0.5331840000000002
 23
9.765461999999999
 33
0.0
  0
SOLID
  5
577
330
3F5
100
AcDbEntity
  8
DIMS_TEXT
 62
     0
440
 16777216
100
AcDbTrace
 10
3.007184
 20
9.790461999999999
 30
0.0
 11
3.007184
 21
9.740461999999999
 31
0.0
 12
3.157183999999999
 22
9.765461999999999
 32
0.0
 13
3.157183999999999
 23
9.765461999999999
 33
0.0
  0
MTEXT
  5
578
330
3F5
100
AcDbEntity
  8
DIMS_TEXT
 62
     0
440
 16777216
100
AcDbMText
 10
1.845184
 20
9.765461999999999
 30
0.0
 40
0.15
 41
0.0
 46
0.0
 71
     5
 72
     1
  1
\A1;2.625
 73
     1
 44
1.0
  0
POINT
  5
579
330
3F5
100
AcDbEntity
  8
DEFPOINTS
 62
     0
440
 16777216
100
AcDbPoint
 10
0.533184
 20
7.556239999999999
 30
0.0
  0
POINT
  5
57A
330
3F5
100
AcDbEntity
  8
DEFPOINTS
 62
     0
440
 16777216
100
AcDbPoint
 10
3.157183999999999
 20
7.556239999999999
 30
0.0
  0
POINT
  5
57B
330
3F5
100
AcDbEntity
  8
DEFPOINTS
 62
     0
440
 16777216
100
AcDbPoint
 10
3.157183999999999
 20
9.765461999999999
 30
0.0
  0
ENDBLK
  5
401
330
3F5
100
AcDbEntity
  8
0
100
AcDbBlockEnd
  0
BLOCK
  5
4BF
330
4B3
100
AcDbEntity
  8
0
100
AcDbBlockBegin
  2
*D17
 70
     1
 10
0.0
 20
0.0
 30
0.0
  3
*D17
  1

  0
LINE
  5
4C0
330
4B3
100
AcDbEntity
  8
0
  6
ByBlock
 62
     0
440
 16777216
100
AcDbLine
 10
-0.030538
 20
8.459704999999999
 30
0.0
 11
0.119462
 21
8.459704999999999
 31
0.0
  0
LINE
  5
4C1
330
4B3
100
AcDbEntity
  8
0
  6
ByBlock
 62
     0
440
 16777216
100
AcDbLine
 10
0.119462
 20
8.459704999999999
 30
0.0
 11
1.230615
 21
5.442639999999999
 31
0.0
  0
MTEXT
  5
4C2
330
4B3
100
AcDbEntity
  8
0
  6
ByBlock
 62
     0
440
 16777216
100
AcDbMText
 10
-0.6098240000000001
 20
8.459704999999999
 30
0.0
 40
0.15
 41
0.0
 46
0.0
 71
     5
 72
     1
  1
\A1;SPANNER\PWRENCH\PHOLES
 73
     1
 44
1.0
  0
SOLID
  5
4C3
330
4B3
100
AcDbEntity
  8
0
  6
ByBlock
 62
     0
440
 16777216
100
AcDbTrace
 10
1.254075
 20
5.45128
 30
0.0
 11
1.207154999999999
 21
5.434001
 31
0.0
 12
1.282453999999999
 22
5.301883
 32
0.0
 13
1.282453999999999
 23
5.301883
 33
0.0
  0
LINE
  5
4C4
330
4B3
100
AcDbEntity
  8
0
  6
ByBlock
 62
     0
440
 16777216
100
AcDbLine
 10
1.224854
 20
5.21391
 30
0.0
 11
1.404854
 21
5.21391
 31
0.0
  0
LINE
  5
4C5
330
4B3
100
AcDbEntity
  8
0
  6
ByBlock
 62
     0
440
 16777216
100
AcDbLine
 10
1.314854
 20
5.123909999999999
 30
0.0
 11
1.314854
 21
5.30391
 31
0.0
  0
POINT
  5
4C6
330
4B3
100
AcDbEntity
  8
DEFPOINTS
  6
ByBlock
 62
     0
440
 16777216
100
AcDbPoint
 10
1.282453999999999
 20
5.301883
 30
0.0
  0
POINT
  5
4C7
330
4B3
100
AcDbEntity
  8
DEFPOINTS
  6
ByBlock
 62
     0
440
 16777216
100
AcDbPoint
 10
1.347254
 20
5.125936
 30
0.0
  0
ENDBLK
  5
4C8
330
4B3
100
AcDbEntity
  8
0
100
AcDbBlockEnd
  0
BLOCK
  5
4E1
330
4D2
100
AcDbEntity
  8
0
100
AcDbBlockBegin
  2
TITLE_BLOCK
 70
     0
 10
0.0
 20
0.0
 30
0.0
  3
TITLE_BLOCK
  1

  0
TEXT
  5
4D3
330
4D2
100
AcDbEntity
  8
DIMS_TEXT
100
AcDbText
 10
-2.625251
 20
-1.013129
 30
0.0
 40
0.2
  1
HAR121   135818(C1)/135817(C2)   1:1
 41
0.7
100
AcDbText
  0
TEXT
  5
4D4
330
4D2
100
AcDbEntity
  8
DIMS_TEXT
100
AcDbText
 10
-2.687755
 20
-0.107889
 30
0.0
 40
0.15
  1
Tel. (508) 278-2422     Fax (508) 278-7863
 41
0.9
100
AcDbText
  0
TEXT
  5
4D5
330
4D2
100
AcDbEntity
  8
DIMS_TEXT
100
AcDbText
 10
-2.413383
 20
0.5243790000000001
 30
0.0
 40
0.2
  1
Two Way Right Angle Gear Drive
 41
0.9
100
AcDbText
  0
TEXT
  5
4D6
330
4D2
100
AcDbEntity
  8
DIMS_TEXT
100
AcDbText
 10
-1.826670999999999
 20
0.987066
 30
0.0
 40
0.3
  1
 MITRPAK
 41
1.5
100
AcDbText
  0
LINE
  5
4D7
330
4D2
100
AcDbEntity
  8
DIMS_TEXT
100
AcDbLine
 10
-2.723036999999999
 20
-0.5330960000000001
 30
0.0
 11
2.500333
 21
-0.5330960000000001
 31
0.0
  0
LINE
  5
4D8
330
4D2
100
AcDbEntity
  8
DIMS_TEXT
100
AcDbLine
 10
-2.723036999999999
 20
-0.199514
 30
0.0
 11
2.500333
 21
-0.199514
 31
0.0
  0
LINE
  5
4D9
330
4D2
100
AcDbEntity
  8
DIMS_TEXT
100
AcDbLine
 10
-2.723036999999999
 20
0.125931
 30
0.0
 11
2.500333
 21
0.125931
 31
0.0
  0
LINE
  5
4DA
330
4D2
100
AcDbEntity
  8
DIMS_TEXT
100
AcDbLine
 10
-2.723036999999999
 20
0.451377
 30
0.0
 11
2.500333
 21
0.451377
 31
0.0
  0
LINE
  5
4DB
330
4D2
100
AcDbEntity
  8
DIMS_TEXT
100
AcDbLine
 10
-2.723036999999999
 20
0.8744569999999999
 30
0.0
 11
2.500333
 21
0.8744569999999999
 31
0.0
  0
TEXT
  5
4DC
330
4D2
100
AcDbEntity
  8
DIMS_TEXT
100
AcDbText
 10
-2.633399999999999
 20
-0.468007
 30
0.0
 40
0.2
  1
MODEL   PART NUMBER  RATIO
100
AcDbText
  0
LWPOLYLINE
  5
4DD
330
4D2
100
AcDbEntity
  8
DIMS_TEXT
100
AcDbPolyline
 90
        4
 70
     1
 43
0.0
 10
-2.723036999999999
 20
1.39517
 10
2.500333
 20
1.39517
 10
2.500333
 20
-1.143307
 10
-2.723036999999999
 20
-1.143307
  0
TEXT
  5
4DE
330
4D2
100
AcDbEntity
  8
DIMS_TEXT
100
AcDbText
 10
-2.687755
 20
0.215921
 30
0.0
 40
0.15
  1
Uxbridge, MA 01569              U.S.A.
100
AcDbText
  0
LINE
  5
4DF
330
4D2
100
AcDbEntity
  8
DIMS_TEXT
100
AcDbLine
 10
-1.394784999999999
 20
-0.199514
 30
0.0
 11
-1.394784999999999
 21
-1.143307
 31
0.0
  0
LINE
  5
4E0
330
4D2
100
AcDbEntity
  8
DIMS_TEXT
100
AcDbLine
 10
1.294312999999999
 20
-0.199514
 30
0.0
 11
1.294312999999999
 21
-1.143307
 31
0.0
  0
ENDBLK
  5
4E2
330
4D2
100
AcDbEntity
  8
0
100
AcDbBlockEnd
  0
ENDSEC
  0
SECTION
  2
ENTITIES
  0
LINE
  5
B5
330
18
100
AcDbEntity
  8
CTR_LINES
100
AcDbLine
 10
6.595082999999999
 20
5.74424
 30
0.0
 11
14.370939
 21
5.74424
 31
0.0
  0
CIRCLE
  5
B6
330
18
100
AcDbEntity
  8
0
100
AcDbCircle
 10
12.817074
 20
4.36924
 30
0.0
 40
0.4375
  0
LINE
  5
B7
330
18
100
AcDbEntity
  8
CTR_LINES
100
AcDbLine
 10
12.257479
 20
4.36924
 30
0.0
 11
13.452874
 21
4.36924
 31
0.0
  0
LINE
  5
B8
330
18
100
AcDbEntity
  8
0
100
AcDbLine
 10
13.192074
 20
1.86924
 30
0.0
 11
12.886296
 21
1.86924
 31
0.0
  0
LINE
  5
B9
330
18
100
AcDbEntity
  8
0
100
AcDbLine
 10
9.567073999999999
 20
1.36924
 30
0.0
 11
13.317074
 21
1.36924
 31
0.0
  0
ARC
  5
BA
330
18
100
AcDbEntity
  8
0
100
AcDbCircle
 10
12.817074
 20
4.36924
 30
0.0
 40
0.4375
100
AcDbArc
 50
225.0
 51
45.0
  0
LINE
  5
BB
330
18
100
AcDbEntity
  8
0
100
AcDbLine
 10
12.066574
 20
6.36924
 30
0.0
 11
13.786074
 21
6.36924
 31
0.0
  0
LINE
  5
BC
330
18
100
AcDbEntity
  8
0
100
AcDbLine
 10
12.063488
 20
6.994239999999999
 30
0.0
 11
13.661074
 21
6.994239999999999
 31
0.0
  0
ARC
  5
BD
330
18
100
AcDbEntity
  8
0
100
AcDbCircle
 10
12.817074
 20
4.36924
 30
0.0
 40
0.4375
100
AcDbArc
 50
275.697678
 51
354.302322
  0
LINE
  5
BF
330
18
100
AcDbEntity
  8
CTR_LINES
100
AcDbLine
 10
12.257479
 20
4.36924
 30
0.0
 11
13.452874
 21
4.36924
 31
0.0
  0
LINE
  5
C0
330
18
100
AcDbEntity
  8
0
100
AcDbLine
 10
3.095683999999999
 20
6.34152
 30
0.0
 11
3.095683999999999
 21
5.146958999999999
 31
0.0
  0
LINE
  5
C2
330
18
100
AcDbEntity
  8
CTR_LINES
100
AcDbLine
 10
2.657183999999999
 20
7.825089999999999
 30
0.0
 11
2.657183999999999
 21
3.766742999999999
 31
0.0
  0
CIRCLE
  5
C3
330
18
100
AcDbEntity
  8
0
  6
Continuous
100
AcDbCircle
 10
1.845183999999999
 20
5.74424
 30
0.0
 40
0.9252499999999999
  0
LINE
  5
C5
330
18
100
AcDbEntity
  8
CTR_LINES
100
AcDbLine
 10
1.845183999999999
 20
7.83578
 30
0.0
 11
1.845183999999999
 21
-0.5871100000000001
 31
0.0
  0
LINE
  5
C6
330
18
100
AcDbEntity
  8
0
100
AcDbLine
 10
0.594684
 20
6.631239999999999
 30
0.0
 11
0.594684
 21
5.48174
 31
0.0
  0
LINE
  5
C9
330
18
100
AcDbEntity
  8
CTR_LINES
100
AcDbLine
 10
12.817074
 20
7.197942999999999
 30
0.0
 11
12.817074
 21
3.744130999999999
 31
0.0
  0
LINE
  5
CA
330
18
100
AcDbEntity
  8
CTR_LINES
100
AcDbLine
 10
11.442074
 20
7.732628
 30
0.0
 11
11.442074
 21
-0.38076
 31
0.0
  0
LINE
  5
CB
330
18
100
AcDbEntity
  8
0
100
AcDbLine
 10
8.567073999999999
 20
7.619239999999999
 30
0.0
 11
8.567073999999999
 21
3.869239999999999
 31
0.0
  0
LINE
  5
CF
330
18
100
AcDbEntity
  8
0
100
AcDbLine
 10
0.583684
 20
1.36924
 30
0.0
 11
3.087169999999999
 21
1.36924
 31
0.0
  0
LINE
  5
D0
330
18
100
AcDbEntity
  8
0
100
AcDbLine
 10
1.595183999999999
 20
3.74474
 30
0.0
 11
1.595183999999999
 21
2.05624
 31
0.0
  0
LINE
  5
D1
330
18
100
AcDbEntity
  8
0
100
AcDbLine
 10
2.095184
 20
3.74474
 30
0.0
 11
2.095184
 21
2.05624
 31
0.0
  0
ARC
  5
D4
330
18
100
AcDbEntity
  8
0
100
AcDbCircle
 10
1.408184
 20
2.05624
 30
0.0
 40
0.187
100
AcDbArc
 50
270.0
 51
360.0
  0
LINE
  5
D5
330
18
100
AcDbEntity
  8
0
100
AcDbLine
 10
0.708684
 20
1.86924
 30
0.0
 11
2.961805
 21
1.86924
 31
0.0
  0
ARC
  5
D6
330
18
100
AcDbEntity
  8
0
100
AcDbCircle
 10
2.282183999999999
 20
2.05624
 30
0.0
 40
0.187
100
AcDbArc
 50
180.0
 51
270.0
  0
LINE
  5
D7
330
18
100
AcDbEntity
  8
0
100
AcDbLine
 10
3.084684
 20
1.80924
 30
0.0
 11
3.086749999999999
 21
1.801379999999999
 31
0.0
  0
LINE
  5
D9
330
18
100
AcDbEntity
  8
0
100
AcDbLine
 10
0.7816840000000001
 20
3.869239999999999
 30
0.0
 11
2.908684
 21
3.869239999999999
 31
0.0
  0
CIRCLE
  5
DB
330
18
100
AcDbEntity
  8
0
  6
Continuous
100
AcDbCircle
 10
1.033184
 20
4.36924
 30
0.0
 40
0.164
  0
LINE
  5
DC
330
18
100
AcDbEntity
  8
0
100
AcDbLine
 10
0.631154
 20
3.931739999999999
 30
0.0
 11
0.533184
 21
3.931739999999999
 31
0.0
  0
ARC
  5
DD
330
18
100
AcDbEntity
  8
0
100
AcDbCircle
 10
0.7816840000000001
 20
4.056239999999999
 30
0.0
 40
0.187
100
AcDbArc
 50
180.0
 51
270.0
  0
ARC
  5
DE
330
18
100
AcDbEntity
  8
0
100
AcDbCircle
 10
1.408184
 20
3.74474
 30
0.0
 40
0.187
100
AcDbArc
 50
360.0
 51
41.74184
  0
LINE
  5
E1
330
18
100
AcDbEntity
  8
0
100
AcDbLine
 10
0.5336840000000001
 20
5.43174
 30
0.0
 11
0.533184
 21
5.43174
 31
0.0
  0
LINE
  5
E4
330
18
100
AcDbEntity
  8
CTR_LINES
100
AcDbLine
 10
3.183823999999999
 20
4.36924
 30
0.0
 11
2.259727999999999
 21
4.36924
 31
0.0
  0
LINE
  5
E5
330
18
100
AcDbEntity
  8
CTR_LINES
100
AcDbLine
 10
2.657183999999999
 20
4.36924
 30
0.0
 11
3.183823999999999
 21
4.36924
 31
0.0
  0
ARC
  5
E6
330
18
100
AcDbEntity
  8
0
100
AcDbCircle
 10
2.908684
 20
4.056239999999999
 30
0.0
 40
0.187
100
AcDbArc
 50
270.0
 51
360.0
  0
ARC
  5
E7
330
18
100
AcDbEntity
  8
0
  6
DASHED2
100
AcDbCircle
 10
2.282183999999999
 20
3.74474
 30
0.0
 40
0.187
100
AcDbArc
 50
138.25816
 51
180.0
  0
CIRCLE
  5
E8
330
18
100
AcDbEntity
  8
0
  6
Continuous
100
AcDbCircle
 10
2.657183999999999
 20
4.36924
 30
0.0
 40
0.164
  0
LINE
  5
E9
330
18
100
AcDbEntity
  8
0
100
AcDbLine
 10
3.157183999999999
 20
3.931739999999999
 30
0.0
 11
3.048215
 21
3.931739999999999
 31
0.0
  0
LINE
  5
EB
330
18
100
AcDbEntity
  8
0
100
AcDbLine
 10
3.146684
 20
4.80674
 30
0.0
 11
3.144683999999999
 21
4.80674
 31
0.0
  0
LINE
  5
EC
330
18
100
AcDbEntity
  8
0
100
AcDbLine
 10
9.567073999999999
 20
1.74424
 30
0.0
 11
9.567073999999999
 21
1.36924
 31
0.0
  0
LINE
  5
ED
330
18
100
AcDbEntity
  8
0
100
AcDbLine
 10
9.254074000000001
 20
5.11924
 30
0.0
 11
9.442574
 21
5.11924
 31
0.0
  0
LINE
  5
EE
330
18
100
AcDbEntity
  8
0
100
AcDbLine
 10
9.254074000000001
 20
4.49424
 30
0.0
 11
9.445658999999999
 21
4.49424
 31
0.0
  0
LINE
  5
EF
330
18
100
AcDbEntity
  8
0
100
AcDbLine
 10
9.067073999999999
 20
4.93224
 30
0.0
 11
9.067073999999999
 21
4.36924
 31
0.0
  0
LINE
  5
F0
330
18
100
AcDbEntity
  8
0
100
AcDbLine
 10
9.067073999999999
 20
4.93224
 30
0.0
 11
9.067073999999999
 21
3.994239999999999
 31
0.0
  0
LINE
  5
F1
330
18
100
AcDbEntity
  8
0
100
AcDbLine
 10
8.942073999999999
 20
3.869239999999999
 30
0.0
 11
8.567073999999999
 21
3.869239999999999
 31
0.0
  0
ARC
  5
F2
330
18
100
AcDbEntity
  8
0
100
AcDbCircle
 10
8.942073999999999
 20
3.994239999999999
 30
0.0
 40
0.125
100
AcDbArc
 50
270.0
 51
0.0
  0
ARC
  5
F3
330
18
100
AcDbEntity
  8
0
  6
DASHED2
100
AcDbCircle
 10
9.254074000000001
 20
4.30724
 30
0.0
 40
0.187
100
AcDbArc
 50
90.0
 51
180.0
  0
LINE
  5
F4
330
18
100
AcDbEntity
  8
0
100
AcDbLine
 10
9.067073999999999
 20
4.30724
 30
0.0
 11
9.067073999999999
 21
4.53324
 31
0.0
  0
LINE
  5
F5
330
18
100
AcDbEntity
  8
0
100
AcDbLine
 10
9.067073999999999
 20
4.36924
 30
0.0
 11
9.067073999999999
 21
4.53324
 31
0.0
  0
ARC
  5
F6
330
18
100
AcDbEntity
  8
0
100
AcDbCircle
 10
9.254074000000001
 20
4.93224
 30
0.0
 40
0.187
100
AcDbArc
 50
90.0
 51
180.0
  0
LINE
  5
F7
330
18
100
AcDbEntity
  8
0
100
AcDbLine
 10
10.817074
 20
3.74474
 30
0.0
 11
10.817074
 21
2.05624
 31
0.0
  0
LINE
  5
F8
330
18
100
AcDbEntity
  8
0
100
AcDbLine
 10
12.067074
 20
3.74474
 30
0.0
 11
12.067074
 21
2.05624
 31
0.0
  0
LINE
  5
F9
330
18
100
AcDbEntity
  8
0
100
AcDbLine
 10
10.192074
 20
3.747825
 30
0.0
 11
10.192074
 21
2.05624
 31
0.0
  0
LINE
  5
FA
330
18
100
AcDbEntity
  8
0
100
AcDbLine
 10
12.692074
 20
3.747825
 30
0.0
 11
12.692074
 21
2.05624
 31
0.0
  0
LINE
  5
FB
330
18
100
AcDbEntity
  8
0
100
AcDbLine
 10
9.692073999999999
 20
1.86924
 30
0.0
 11
10.630074
 21
1.86924
 31
0.0
  0
ARC
  5
FC
330
18
100
AcDbEntity
  8
0
100
AcDbCircle
 10
9.692073999999999
 20
1.74424
 30
0.0
 40
0.125
100
AcDbArc
 50
90.0
 51
180.0
  0
ARC
  5
FD
330
18
100
AcDbEntity
  8
0
100
AcDbCircle
 10
10.005074
 20
2.05624
 30
0.0
 40
0.187
100
AcDbArc
 50
270.0
 51
0.0
  0
ARC
  5
FE
330
18
100
AcDbEntity
  8
0
100
AcDbCircle
 10
10.630074
 20
2.05624
 30
0.0
 40
0.187
100
AcDbArc
 50
270.0
 51
0.0
  0
ARC
  5
FF
330
18
100
AcDbEntity
  8
0
100
AcDbCircle
 10
12.254074
 20
2.05624
 30
0.0
 40
0.187
100
AcDbArc
 50
180.0
 51
270.0
  0
LINE
  5
100
330
18
100
AcDbEntity
  8
0
100
AcDbLine
 10
12.254074
 20
1.86924
 30
0.0
 11
12.886296
 21
1.86924
 31
0.0
  0
ARC
  5
101
330
18
100
AcDbEntity
  8
0
100
AcDbCircle
 10
12.879074
 20
2.05624
 30
0.0
 40
0.187
100
AcDbArc
 50
180.0
 51
270.0
  0
LINE
  5
102
330
18
100
AcDbEntity
  8
0
100
AcDbLine
 10
9.629573999999999
 20
4.36924
 30
0.0
 11
9.629573999999999
 21
4.93224
 31
0.0
  0
CIRCLE
  5
103
330
18
100
AcDbEntity
  8
0
100
AcDbCircle
 10
10.067074
 20
4.36924
 30
0.0
 40
0.4375
  0
LINE
  5
104
330
18
100
AcDbEntity
  8
0
100
AcDbLine
 10
10.028949
 20
3.931739999999999
 30
0.0
 11
10.630074
 21
3.931739999999999
 31
0.0
  0
ARC
  5
105
330
18
100
AcDbEntity
  8
0
100
AcDbCircle
 10
10.005074
 20
3.747825
 30
0.0
 40
0.187
100
AcDbArc
 50
0.0
 51
84.302322
  0
LINE
  5
106
330
18
100
AcDbEntity
  8
0
100
AcDbLine
 10
10.067074
 20
3.931739999999999
 30
0.0
 11
10.038902
 21
3.931739999999999
 31
0.0
  0
LINE
  5
107
330
18
100
AcDbEntity
  8
0
100
AcDbLine
 10
10.023639
 20
3.933901
 30
0.0
 11
9.988075999999999
 21
3.948376
 31
0.0
  0
LINE
  5
108
330
18
100
AcDbEntity
  8
0
100
AcDbLine
 10
10.023639
 20
3.933901
 30
0.0
 11
10.023639
 21
3.933901
 31
0.0
  0
ARC
  5
109
330
18
100
AcDbEntity
  8
0
100
AcDbCircle
 10
9.445658999999999
 20
4.30724
 30
0.0
 40
0.187
100
AcDbArc
 50
5.697677999999999
 51
90.0
  0
CIRCLE
  5
10A
330
18
100
AcDbEntity
  8
0
100
AcDbCircle
 10
10.067074
 20
4.36924
 30
0.0
 40
0.164
  0
ARC
  5
10B
330
18
100
AcDbEntity
  8
0
100
AcDbCircle
 10
10.630074
 20
3.74474
 30
0.0
 40
0.187
100
AcDbArc
 50
0.0
 51
90.0
  0
ARC
  5
10C
330
18
100
AcDbEntity
  8
0
100
AcDbCircle
 10
9.442574
 20
4.93224
 30
0.0
 40
0.187
100
AcDbArc
 50
0.0
 51
90.0
  0
ARC
  5
10D
330
18
100
AcDbEntity
  8
0
100
AcDbCircle
 10
12.254074
 20
3.74474
 30
0.0
 40
0.187
100
AcDbArc
 50
90.0
 51
180.0
  0
LINE
  5
10E
330
18
100
AcDbEntity
  8
0
100
AcDbLine
 10
12.254074
 20
3.931739999999999
 30
0.0
 11
12.817074
 21
3.931739999999999
 31
0.0
  0
ARC
  5
10F
330
18
100
AcDbEntity
  8
0
100
AcDbCircle
 10
12.879074
 20
3.747825
 30
0.0
 40
0.187
100
AcDbArc
 50
95.69767799999999
 51
180.0
  0
CIRCLE
  5
110
330
18
100
AcDbEntity
  8
0
100
AcDbCircle
 10
12.817074
 20
4.36924
 30
0.0
 40
0.164
  0
LINE
  5
113
330
18
100
AcDbEntity
  8
CTR_LINES
100
AcDbLine
 10
2.316827999999999
 20
7.119239999999999
 30
0.0
 11
3.345069
 21
7.119239999999999
 31
0.0
  0
LINE
  5
114
330
18
100
AcDbEntity
  8
CTR_LINES
100
AcDbLine
 10
0.199229
 20
5.74424
 30
0.0
 11
3.421823
 21
5.74424
 31
0.0
  0
CIRCLE
  5
115
330
18
100
AcDbEntity
  8
0
  6
Continuous
100
AcDbCircle
 10
1.033184
 20
7.119239999999999
 30
0.0
 40
0.164
  0
LINE
  5
116
330
18
100
AcDbEntity
  8
0
100
AcDbLine
 10
0.533184
 20
6.681239999999999
 30
0.0
 11
0.5336840000000001
 21
6.681239999999999
 31
0.0
  0
CIRCLE
  5
118
330
18
100
AcDbEntity
  8
0
  6
Continuous
100
AcDbCircle
 10
2.657183999999999
 20
7.119239999999999
 30
0.0
 40
0.164
  0
LINE
  5
119
330
18
100
AcDbEntity
  8
0
100
AcDbLine
 10
3.134684
 20
6.681239999999999
 30
0.0
 11
3.157183999999999
 21
6.681239999999999
 31
0.0
  0
LINE
  5
11A
330
18
100
AcDbEntity
  8
0
100
AcDbLine
 10
0.7816840000000001
 20
7.619239999999999
 30
0.0
 11
2.908684
 21
7.619239999999999
 31
0.0
  0
ARC
  5
11B
330
18
100
AcDbEntity
  8
0
100
AcDbCircle
 10
0.7816840000000001
 20
7.432239999999999
 30
0.0
 40
0.187
100
AcDbArc
 50
90.0
 51
180.0
  0
LINE
  5
11C
330
18
100
AcDbEntity
  8
0
100
AcDbLine
 10
0.533184
 20
7.556239999999999
 30
0.0
 11
0.630709
 21
7.556239999999999
 31
0.0
  0
ARC
  5
11D
330
18
100
AcDbEntity
  8
0
100
AcDbCircle
 10
2.908684
 20
7.432239999999999
 30
0.0
 40
0.187
100
AcDbArc
 50
360.0
 51
90.0
  0
LINE
  5
11E
330
18
100
AcDbEntity
  8
0
100
AcDbLine
 10
3.048659
 20
7.556239999999999
 30
0.0
 11
3.157183999999999
 21
7.556239999999999
 31
0.0
  0
LINE
  5
11F
330
18
100
AcDbEntity
  8
CTR_LINES
100
AcDbLine
 10
8.436913
 20
7.119239999999999
 30
0.0
 11
12.076187
 21
7.119239999999999
 31
0.0
  0
LINE
  5
120
330
18
100
AcDbEntity
  8
0
100
AcDbLine
 10
9.254074000000001
 20
6.36924
 30
0.0
 11
10.817574
 21
6.36924
 31
0.0
  0
LINE
  5
121
330
18
100
AcDbEntity
  8
0
100
AcDbLine
 10
9.254074000000001
 20
6.994239999999999
 30
0.0
 11
10.820659
 21
6.994239999999999
 31
0.0
  0
LINE
  5
122
330
18
100
AcDbEntity
  8
CTR_LINES
100
AcDbLine
 10
8.436913
 20
7.119239999999999
 30
0.0
 11
12.076187
 21
7.119239999999999
 31
0.0
  0
LINE
  5
123
330
18
100
AcDbEntity
  8
0
100
AcDbLine
 10
9.067073999999999
 20
6.556239999999999
 30
0.0
 11
9.067073999999999
 21
7.494239999999999
 31
0.0
  0
ARC
  5
124
330
18
100
AcDbEntity
  8
0
100
AcDbCircle
 10
9.254074000000001
 20
6.556239999999999
 30
0.0
 40
0.187
100
AcDbArc
 50
180.0
 51
270.0
  0
ARC
  5
125
330
18
100
AcDbEntity
  8
0
  6
DASHED2
100
AcDbCircle
 10
9.254074000000001
 20
7.181239999999999
 30
0.0
 40
0.187
100
AcDbArc
 50
180.0
 51
270.0
  0
LINE
  5
126
330
18
100
AcDbEntity
  8
0
100
AcDbLine
 10
8.567073999999999
 20
7.619239999999999
 30
0.0
 11
8.942073999999999
 21
7.619239999999999
 31
0.0
  0
ARC
  5
127
330
18
100
AcDbEntity
  8
0
100
AcDbCircle
 10
8.942073999999999
 20
7.494239999999999
 30
0.0
 40
0.125
100
AcDbArc
 50
0.0
 51
90.0
  0
CIRCLE
  5
128
330
18
100
AcDbEntity
  8
0
100
AcDbCircle
 10
11.442074
 20
7.119239999999999
 30
0.0
 40
0.4375
  0
ARC
  5
129
330
18
100
AcDbEntity
  8
0
100
AcDbCircle
 10
10.817574
 20
6.556239999999999
 30
0.0
 40
0.187
100
AcDbArc
 50
270.0
 51
0.0
  0
LINE
  5
12A
330
18
100
AcDbEntity
  8
0
100
AcDbLine
 10
11.004574
 20
7.119239999999999
 30
0.0
 11
11.004574
 21
6.556239999999999
 31
0.0
  0
ARC
  5
12B
330
18
100
AcDbEntity
  8
0
100
AcDbCircle
 10
10.820659
 20
7.181239999999999
 30
0.0
 40
0.187
100
AcDbArc
 50
270.0
 51
354.302322
  0
ARC
  5
12C
330
18
100
AcDbEntity
  8
0
100
AcDbCircle
 10
12.066574
 20
6.556239999999999
 30
0.0
 40
0.187
100
AcDbArc
 50
180.0
 51
270.0
  0
LINE
  5
12D
330
18
100
AcDbEntity
  8
0
100
AcDbLine
 10
11.879574
 20
7.119239999999999
 30
0.0
 11
11.879574
 21
6.556239999999999
 31
0.0
  0
CIRCLE
  5
12E
330
18
100
AcDbEntity
  8
0
100
AcDbCircle
 10
11.442074
 20
7.119239999999999
 30
0.0
 40
0.164
  0
ARC
  5
12F
330
18
100
AcDbEntity
  8
0
100
AcDbCircle
 10
12.063488
 20
7.181239999999999
 30
0.0
 40
0.187
100
AcDbArc
 50
185.697678
 51
270.0
  0
LINE
  5
131
330
18
100
AcDbEntity
  8
0
100
AcDbLine
 10
13.317074
 20
1.74424
 30
0.0
 11
13.317074
 21
1.36924
 31
0.0
  0
ARC
  5
132
330
18
100
AcDbEntity
  8
0
100
AcDbCircle
 10
13.192074
 20
1.74424
 30
0.0
 40
0.125
100
AcDbArc
 50
360.0
 51
90.0
  0
LINE
  5
134
330
18
100
AcDbEntity
  8
0
100
AcDbLine
 10
13.254574
 20
4.36924
 30
0.0
 11
13.254574
 21
4.93224
 31
0.0
  0
LINE
  5
135
330
18
100
AcDbEntity
  8
0
100
AcDbLine
 10
13.438488
 20
4.49424
 30
0.0
 11
13.661074
 21
4.49424
 31
0.0
  0
ARC
  5
136
330
18
100
AcDbEntity
  8
0
100
AcDbCircle
 10
13.438488
 20
4.30724
 30
0.0
 40
0.187
100
AcDbArc
 50
90.0
 51
174.302322
  0
ARC
  5
137
330
18
100
AcDbEntity
  8
0
100
AcDbCircle
 10
13.441574
 20
4.93224
 30
0.0
 40
0.187
100
AcDbArc
 50
90.0
 51
180.0
  0
LINE
  5
138
330
18
100
AcDbEntity
  8
0
100
AcDbLine
 10
13.441574
 20
5.11924
 30
0.0
 11
13.786074
 21
5.11924
 31
0.0
  0
LINE
  5
13C
330
18
100
AcDbEntity
  8
0
100
AcDbLine
 10
6.817074
 20
6.08924
 30
0.0
 11
6.817074
 21
5.399239999999999
 31
0.0
  0
LINE
  5
13E
330
18
100
AcDbEntity
  8
0
100
AcDbLine
 10
11.817074
 20
1.36924
 30
0.0
 11
11.817074
 21
-0.35076
 31
0.0
  0
LINE
  5
13F
330
18
100
AcDbEntity
  8
0
100
AcDbLine
 10
11.067074
 20
1.36924
 30
0.0
 11
11.067074
 21
-0.35076
 31
0.0
  0
LINE
  5
140
330
18
100
AcDbEntity
  8
0
100
AcDbLine
 10
2.220184
 20
1.36924
 30
0.0
 11
2.220184
 21
-0.35076
 31
0.0
  0
LINE
  5
141
330
18
100
AcDbEntity
  8
0
100
AcDbLine
 10
1.470183999999999
 20
1.36924
 30
0.0
 11
1.470183999999999
 21
-0.35076
 31
0.0
  0
LINE
  5
142
330
18
100
AcDbEntity
  8
0
100
AcDbLine
 10
6.847074
 20
6.11924
 30
0.0
 11
8.567073999999999
 21
6.11924
 31
0.0
  0
LINE
  5
143
330
18
100
AcDbEntity
  8
0
100
AcDbLine
 10
6.847074
 20
5.36924
 30
0.0
 11
8.567073999999999
 21
5.36924
 31
0.0
  0
LINE
  5
144
330
18
100
AcDbEntity
  8
0
100
AcDbLine
 10
1.500183999999999
 20
-0.38076
 30
0.0
 11
2.190183999999999
 21
-0.38076
 31
0.0
  0
LINE
  5
145
330
18
100
AcDbEntity
  8
0
100
AcDbLine
 10
11.097074
 20
-0.38076
 30
0.0
 11
11.787074
 21
-0.38076
 31
0.0
  0
LINE
  5
146
330
18
100
AcDbEntity
  8
0
100
AcDbLine
 10
6.847074
 20
6.11924
 30
0.0
 11
6.817074
 21
6.08924
 31
0.0
  0
LINE
  5
147
330
18
100
AcDbEntity
  8
0
100
AcDbLine
 10
6.847074
 20
5.36924
 30
0.0
 11
6.817074
 21
5.399239999999999
 31
0.0
  0
LINE
  5
148
330
18
100
AcDbEntity
  8
0
100
AcDbLine
 10
11.817074
 20
-0.35076
 30
0.0
 11
11.787074
 21
-0.38076
 31
0.0
  0
LINE
  5
149
330
18
100
AcDbEntity
  8
0
100
AcDbLine
 10
11.097074
 20
-0.38076
 30
0.0
 11
11.067074
 21
-0.35076
 31
0.0
  0
LINE
  5
14A
330
18
100
AcDbEntity
  8
0
100
AcDbLine
 10
2.220184
 20
-0.35076
 30
0.0
 11
2.190183999999999
 21
-0.38076
 31
0.0
  0
LINE
  5
14B
330
18
100
AcDbEntity
  8
0
100
AcDbLine
 10
1.500183999999999
 20
-0.38076
 30
0.0
 11
1.470183999999999
 21
-0.35076
 31
0.0
  0
LINE
  5
14C
330
18
100
AcDbEntity
  8
0
100
AcDbLine
 10
1.470183999999999
 20
-0.35076
 30
0.0
 11
2.220184
 21
-0.35076
 31
0.0
  0
LINE
  5
14D
330
18
100
AcDbEntity
  8
0
100
AcDbLine
 10
11.067074
 20
-0.35076
 30
0.0
 11
11.349074
 21
-0.35076
 31
0.0
  0
LINE
  5
14E
330
18
100
AcDbEntity
  8
0
100
AcDbLine
 10
6.847074
 20
5.36924
 30
0.0
 11
6.847074
 21
5.65124
 31
0.0
  0
LINE
  5
14F
330
18
100
AcDbEntity
  8
0
100
AcDbLine
 10
6.817074
 20
5.83724
 30
0.0
 11
8.567073999999999
 21
5.83724
 31
0.0
  0
LINE
  5
150
330
18
100
AcDbEntity
  8
0
100
AcDbLine
 10
6.817074
 20
5.65124
 30
0.0
 11
8.567073999999999
 21
5.65124
 31
0.0
  0
LINE
  5
151
330
18
100
AcDbEntity
  8
0
100
AcDbLine
 10
11.535074
 20
1.36924
 30
0.0
 11
11.535074
 21
-0.38076
 31
0.0
  0
LINE
  5
152
330
18
100
AcDbEntity
  8
CTR_LINES
100
AcDbLine
 10
11.442074
 20
7.732628
 30
0.0
 11
11.442074
 21
-0.5871100000000001
 31
0.0
  0
LINE
  5
153
330
18
100
AcDbEntity
  8
0
100
AcDbLine
 10
11.349074
 20
1.36924
 30
0.0
 11
11.349074
 21
-0.38076
 31
0.0
  0
LINE
  5
158
330
18
100
AcDbEntity
  8
HIDDEN_LINE
100
AcDbLine
 10
2.110183999999999
 20
1.11924
 30
0.0
 11
2.110183999999999
 21
-0.38076
 31
0.0
  0
ARC
  5
15A
330
18
100
AcDbEntity
  8
HIDDEN_LINE
100
AcDbCircle
 10
2.485183999999999
 20
1.11924
 30
0.0
 40
0.375
100
AcDbArc
 50
138.189685
 51
180.0
  0
LINE
  5
15B
330
18
100
AcDbEntity
  8
0
100
AcDbLine
 10
6.847074
 20
5.83724
 30
0.0
 11
6.847074
 21
6.11924
 31
0.0
  0
LINE
  5
15C
330
18
100
AcDbEntity
  8
0
100
AcDbLine
 10
11.535074
 20
-0.35076
 30
0.0
 11
11.817074
 21
-0.35076
 31
0.0
  0
CIRCLE
  5
15F
330
18
100
AcDbEntity
  8
0
100
AcDbCircle
 10
1.845183999999999
 20
5.74424
 30
0.0
 40
0.375
  0
ARC
  5
160
330
18
100
AcDbEntity
  8
0
100
AcDbCircle
 10
1.845183999999999
 20
5.74424
 30
0.0
 40
0.345
100
AcDbArc
 50
15.63839599999999
 51
344.361604
  0
LINE
  5
161
330
18
100
AcDbEntity
  8
0
100
AcDbLine
 10
2.110183999999999
 20
5.83724
 30
0.0
 11
2.110183999999999
 21
5.65124
 31
0.0
  0
LINE
  5
162
330
18
100
AcDbEntity
  8
0
100
AcDbLine
 10
2.110183999999999
 20
5.83724
 30
0.0
 11
2.208469
 21
5.83724
 31
0.0
  0
LINE
  5
163
330
18
100
AcDbEntity
  8
0
100
AcDbLine
 10
2.110183999999999
 20
5.65124
 30
0.0
 11
2.208469
 21
5.65124
 31
0.0
  0
DIMENSION
  5
1BD
330
18
100
AcDbEntity
  8
DIMS_TEXT
100
AcDbDimension
280
     0
  2
*D1
 10
11.535074
 20
-1.027031999999999
 30
0.0
 11
12.610788
 21
-1.027031999999999
 31
0.0
 70
    32
  1
.187 x .093\PKEYWAY\PTYP.
 71
     5
 42
-1.0
 73
     0
 74
     0
 75
     0
  3
STANDARD
100
AcDbAlignedDimension
 13
11.349074
 23
-0.38076
 33
0.0
 14
11.535074
 24
-0.38076
 34
0.0
100
AcDbRotatedDimension
1001
ACAD
1000
DSTYLE
1002
{
1070
    78
1070
     4
1070
   140
1040
0.15
1070
   271
1070
     3
1070
    41
1040
0.15
1002
}
  0
DIMENSION
  5
1D5
330
18
100
AcDbEntity
  8
DIMS_TEXT
100
AcDbDimension
280
     0
  2
*D2
 10
12.706181
 20
4.490065
 30
0.0
 11
14.576891
 21
3.429301
 31
0.0
 70
   163
  1
<> THRU\PX 3
 71
     5
 42
-1.0
 73
     0
 74
     0
 75
     0
  3
STANDARD
100
AcDbDiametricDimension
 15
12.927967
 25
4.248415
 35
0.0
 40
0.0
1001
ACAD
1000
DSTYLE
1002
{
1070
    78
1070
     4
1070
   288
1070
     1
1070
   140
1040
0.15
1070
   271
1070
     3
1070
    41
1040
0.15
1002
}
  0
DIMENSION
  5
1ED
330
18
100
AcDbEntity
  8
DIMS_TEXT
100
AcDbDimension
280
     0
  2
*D3
 10
11.442074
 20
8.196889999999999
 30
0.0
 11
10.004574
 21
8.196889999999999
 31
0.0
 70
    32
  1
<>\PTYP.
 71
     5
 42
-1.0
 73
     0
 74
     0
 75
     0
  3
STANDARD
100
AcDbAlignedDimension
 13
8.567073999999999
 23
7.619239999999999
 33
0.0
 14
11.442074
 24
7.732628
 34
0.0
100
AcDbRotatedDimension
1001
ACAD
1000
DSTYLE
1002
{
1070
    78
1070
     4
1070
   140
1040
0.15
1070
   271
1070
     3
1070
    41
1040
0.15
1002
}
  0
DIMENSION
  5
1FA
330
18
100
AcDbEntity
  8
DIMS_TEXT
100
AcDbDimension
280
     0
  2
*D4
 10
12.817074
 20
8.196889999999999
 30
0.0
 11
12.129574
 21
8.196889999999999
 31
0.0
 70
    32
  1
<>\PTYP.
 71
     5
 42
-1.0
 73
     0
 74
     0
 75
     0
  3
STANDARD
100
AcDbAlignedDimension
 13
11.442074
 23
7.732628
 33
0.0
 14
12.817074
 24
7.197942999999999
 34
0.0
100
AcDbRotatedDimension
1001
ACAD
1000
DSTYLE
1002
{
1070
    78
1070
     4
1070
   140
1040
0.15
1070
    75
1070
     1
1070
   287
1070
     4
1070
   271
1070
     3
1070
    41
1040
0.15
1002
}
  0
DIMENSION
  5
23B
330
18
100
AcDbEntity
  8
DIMS_TEXT
100
AcDbDimension
280
     0
  2
*D5
 10
9.100977999999999
 20
1.36924
 30
0.0
 11
9.100977999999999
 21
0.49424
 31
0.0
 70
    32
  1
<>\PTYP.
 71
     5
 42
-1.0
 73
     0
 74
     0
 75
     0
  3
STANDARD
100
AcDbAlignedDimension
 13
11.097074
 23
-0.38076
 33
0.0
 14
9.567073999999999
 24
1.36924
 34
0.0
 50
90.0
100
AcDbRotatedDimension
1001
ACAD
1000
DSTYLE
1002
{
1070
    78
1070
     4
1070
   140
1040
0.15
1070
   271
1070
     3
1070
    41
1040
0.15
1002
}
  0
LINE
  5
248
330
18
100
AcDbEntity
  8
0
100
AcDbLine
 10
13.786074
 20
6.869239999999999
 30
0.0
 11
13.786074
 21
4.61924
 31
0.0
  0
ARC
  5
24A
330
18
100
AcDbEntity
  8
0
100
AcDbCircle
 10
13.661074
 20
6.869239999999999
 30
0.0
 40
0.125
100
AcDbArc
 50
0.0
 51
90.0
  0
ARC
  5
24B
330
18
100
AcDbEntity
  8
0
100
AcDbCircle
 10
13.661074
 20
4.61924
 30
0.0
 40
0.125
100
AcDbArc
 50
270.0
 51
0.0
  0
DIMENSION
  5
259
330
18
100
AcDbEntity
  8
DIMS_TEXT
100
AcDbDimension
280
     0
  2
*D6
 10
13.786074
 20
8.949804999999999
 30
0.0
 11
10.301574
 21
8.949804999999999
 31
0.0
 70
    32
  1
6.97
 71
     5
 42
-1.0
 73
     0
 74
     0
 75
     0
  3
STANDARD
100
AcDbAlignedDimension
 13
6.817074
 23
6.08924
 33
0.0
 14
13.786074
 24
6.869239999999999
 34
0.0
100
AcDbRotatedDimension
1001
ACAD
1000
DSTYLE
1002
{
1070
    78
1070
     4
1070
   140
1040
0.15
1070
   271
1070
     3
1070
    41
1040
0.15
1002
}
  0
DIMENSION
  5
278
330
18
100
AcDbEntity
  8
DIMS_TEXT
100
AcDbDimension
280
     0
  2
*D7
 10
5.971582999999999
 20
7.119239999999999
 30
0.0
 11
5.971582999999999
 21
6.43174
 31
0.0
 70
    32
  1
<>\PTYP.
 71
     5
 42
-1.0
 73
     0
 74
     0
 75
     0
  3
STANDARD
100
AcDbAlignedDimension
 13
6.595082999999999
 23
5.74424
 33
0.0
 14
8.436913
 24
7.119239999999999
 34
0.0
 50
90.0
100
AcDbRotatedDimension
1001
ACAD
1000
DSTYLE
1002
{
1070
    78
1070
     4
1070
   140
1040
0.15
1070
   271
1070
     3
1070
    41
1040
0.15
1002
}
  0
DIMENSION
  5
293
330
18
100
AcDbEntity
  8
DIMS_TEXT
100
AcDbDimension
280
     0
  2
*D8
 10
13.938962
 20
1.36924
 30
0.0
 11
13.484676
 21
0.7520310000000001
 31
0.0
 70
   160
  1
.50\PTYP.
 71
     5
 42
-1.0
 73
     0
 74
     0
 75
     0
  3
STANDARD
100
AcDbAlignedDimension
 13
13.192074
 23
1.86924
 33
0.0
 14
13.317074
 24
1.36924
 34
0.0
 50
90.0
100
AcDbRotatedDimension
1001
ACAD
1000
DSTYLE
1002
{
1070
    78
1070
     4
1070
   140
1040
0.15
1070
   271
1070
     3
1070
    41
1040
0.15
1002
}
  0
DIMENSION
  5
2C8
330
18
100
AcDbEntity
  8
DIMS_TEXT
100
AcDbDimension
280
     0
  2
*D9
 10
3.832455999999999
 20
7.119239999999999
 30
0.0
 11
3.832455999999999
 21
6.43174
 31
0.0
 70
   160
  1
<>\PTYP.
 71
     5
 42
-1.0
 73
     0
 74
     0
 75
     0
  3
STANDARD
100
AcDbAlignedDimension
 13
3.421823
 23
5.74424
 33
0.0
 14
3.345069
 24
7.119239999999999
 34
0.0
 50
90.0
100
AcDbRotatedDimension
1001
ACAD
1000
DSTYLE
1002
{
1070
    78
1070
     4
1070
   140
1040
0.15
1070
   271
1070
     3
1070
    41
1040
0.15
1002
}
  0
DIMENSION
  5
2EE
330
18
100
AcDbEntity
  8
DIMS_TEXT
100
AcDbDimension
280
     0
  2
*D10
 10
2.657183999999999
 20
8.259633
 30
0.0
 11
3.643708999999999
 21
8.259633
 31
0.0
 70
   160
  1
<>\PTYP.
 71
     5
 42
-1.0
 73
     0
 74
     0
 75
     0
  3
STANDARD
100
AcDbAlignedDimension
 13
1.845183999999999
 23
7.83578
 33
0.0
 14
2.657183999999999
 24
7.825089999999999
 34
0.0
100
AcDbRotatedDimension
1001
ACAD
1000
DSTYLE
1002
{
1070
    78
1070
     4
1070
   140
1040
0.15
1070
   271
1070
     3
1070
    41
1040
0.15
1002
}
  0
DIMENSION
  5
354
330
18
100
AcDbEntity
  8
DIMS_TEXT
100
AcDbDimension
280
     0
  2
*D11
 10
-0.068306
 20
5.74424
 30
0.0
 11
-0.068306
 21
3.55674
 31
0.0
 70
    32
 71
     5
 42
-1.0
 73
     0
 74
     0
 75
     0
  3
STANDARD
100
AcDbAlignedDimension
 13
0.583684
 23
1.36924
 33
0.0
 14
0.199229
 24
5.74424
 34
0.0
 50
90.0
100
AcDbRotatedDimension
1001
ACAD
1000
DSTYLE
1002
{
1070
    78
1070
     4
1070
   140
1040
0.15
1070
   271
1070
     3
1070
    41
1040
0.15
1002
}
  0
DIMENSION
  5
370
330
18
100
AcDbEntity
  8
DIMS_TEXT
100
AcDbDimension
280
     0
  2
*D12
 10
-0.823292
 20
7.556239999999999
 30
0.0
 11
-0.823292
 21
4.68329
 31
0.0
 70
   160
  1
7.94
 71
     5
 42
-1.0
 73
     0
 74
     0
 75
     0
  3
STANDARD
100
AcDbAlignedDimension
 13
1.500183999999999
 23
-0.38076
 33
0.0
 14
0.5216840000000001
 24
7.556239999999999
 34
0.0
 50
90.0
100
AcDbRotatedDimension
1001
ACAD
1000
DSTYLE
1002
{
1070
    78
1070
     4
1070
   140
1040
0.15
1070
   271
1070
     3
1070
    41
1040
0.15
1002
}
  0
DIMENSION
  5
396
330
18
100
AcDbEntity
  8
DIMS_TEXT
100
AcDbDimension
280
     0
  2
*D13
 10
1.470183999999999
 20
-1.035128
 30
0.0
 11
0.4741590000000001
 21
-1.035128
 31
0.0
 70
   160
  1
%%C<>\PTYP.
 71
     5
 42
-1.0
 73
     0
 74
     0
 75
     0
  3
STANDARD
100
AcDbAlignedDimension
 13
2.220184
 23
-0.35076
 33
0.0
 14
1.470183999999999
 24
-0.35076
 34
0.0
100
AcDbRotatedDimension
1001
ACAD
1000
DSTYLE
1002
{
1070
    78
1070
     4
1070
   140
1040
0.15
1070
   271
1070
     3
1070
    41
1040
0.15
1002
}
  0
DIMENSION
  5
3C6
330
18
100
AcDbEntity
  8
DIMS_TEXT
100
AcDbDimension
280
     0
  2
*D14
 10
2.517635999999999
 20
4.455392999999999
 30
0.0
 11
4.894859999999999
 21
3.541630999999999
 31
0.0
 70
   163
  1
<> THRU\PX 4\PTYP.
 71
     5
 42
-1.0
 73
     0
 74
     0
 75
     0
  3
STANDARD
100
AcDbDiametricDimension
 15
2.796731999999999
 25
4.283087
 35
0.0
 40
0.0
1001
ACAD
1000
DSTYLE
1002
{
1070
    78
1070
     4
1070
   288
1070
     1
1070
   140
1040
0.15
1070
   271
1070
     3
1070
    41
1040
0.15
1002
}
  0
ARC
  5
3D3
330
18
100
AcDbEntity
  8
0
100
AcDbCircle
 10
2.961805
 20
1.74424
 30
0.0
 40
0.125
100
AcDbArc
 50
0.055627
 51
90.0
  0
ARC
  5
3D4
330
18
100
AcDbEntity
  8
0
100
AcDbCircle
 10
0.708684
 20
1.74424
 30
0.0
 40
0.125
100
AcDbArc
 50
90.0
 51
180.0
  0
LINE
  5
3DA
330
18
100
AcDbEntity
  8
0
100
AcDbLine
 10
3.157183999999999
 20
7.556239999999999
 30
0.0
 11
3.157183999999999
 21
6.681239999999999
 31
0.0
  0
LINE
  5
3DB
330
18
100
AcDbEntity
  8
0
100
AcDbLine
 10
0.533184
 20
7.556239999999999
 30
0.0
 11
0.533184
 21
6.681239999999999
 31
0.0
  0
LINE
  5
3DD
330
18
100
AcDbEntity
  8
0
100
AcDbLine
 10
3.157183999999999
 20
4.80674
 30
0.0
 11
3.145684
 21
4.80674
 31
0.0
  0
LINE
  5
3DF
330
18
100
AcDbEntity
  8
0
100
AcDbLine
 10
3.157183999999999
 20
4.80674
 30
0.0
 11
3.157183999999999
 21
3.931739999999999
 31
0.0
  0
ARC
  5
3E0
330
18
100
AcDbEntity
  8
0
100
AcDbCircle
 10
3.134684
 20
6.631239999999999
 30
0.0
 40
0.05
100
AcDbArc
 50
90.0
 51
141.260575
  0
LINE
  5
3E6
330
18
100
AcDbEntity
  8
0
100
AcDbLine
 10
0.533184
 20
5.43174
 30
0.0
 11
0.533184
 21
3.931739999999999
 31
0.0
  0
DIMENSION
  5
3F4
330
18
100
AcDbEntity
  8
DIMS_TEXT
100
AcDbDimension
280
     0
  2
*D15
 10
1.845183999999999
 20
9.149888
 30
0.0
 11
3.873191
 21
9.149888
 31
0.0
 70
   160
  1
<>\PTYP.
 71
     5
 42
-1.0
 73
     0
 74
     0
 75
     0
  3
STANDARD
100
AcDbAlignedDimension
 13
3.157183999999999
 23
7.556239999999999
 33
0.0
 14
1.845183999999999
 24
7.83578
 34
0.0
100
AcDbRotatedDimension
1001
ACAD
1000
DSTYLE
1002
{
1070
    78
1070
     4
1070
   140
1040
0.15
1070
   271
1070
     3
1070
    41
1040
0.15
1002
}
  0
DIMENSION
  5
402
330
18
100
AcDbEntity
  8
DIMS_TEXT
100
AcDbDimension
280
     0
  2
*D16
 10
3.157183999999999
 20
9.765461999999999
 30
0.0
 11
1.845184
 21
9.765461999999999
 31
0.0
 70
    32
  1
2.625
 71
     5
 42
2.624
 73
     0
 74
     0
 75
     0
  3
STANDARD
100
AcDbAlignedDimension
 13
0.533184
 23
7.556239999999999
 33
0.0
 14
3.157183999999999
 24
7.556239999999999
 34
0.0
100
AcDbRotatedDimension
1001
ACAD
1000
DSTYLE
1002
{
1070
    78
1070
     4
1070
   140
1040
0.15
1070
   271
1070
     3
1070
    41
1040
0.15
1002
}
  0
LINE
  5
427
330
18
100
AcDbEntity
  8
0
100
AcDbLine
 10
0.583684
 20
3.931739999999999
 30
0.0
 11
0.583684
 21
1.36924
 31
0.0
  0
LINE
  5
429
330
18
100
AcDbEntity
  8
0
100
AcDbLine
 10
3.084684
 20
3.931739999999999
 30
0.0
 11
3.084684
 21
1.36924
 31
0.0
  0
ARC
  5
454
330
18
100
AcDbEntity
  8
0
100
AcDbCircle
 10
3.145684
 20
4.85674
 30
0.0
 40
0.05
100
AcDbArc
 50
180.0
 51
270.0
  0
LINE
  5
456
330
18
100
AcDbEntity
  8
0
100
AcDbLine
 10
0.533184
 20
6.681239999999999
 30
0.0
 11
0.5446840000000001
 21
6.681239999999999
 31
0.0
  0
LINE
  5
457
330
18
100
AcDbEntity
  8
DIMS_TEXT
100
AcDbLine
 10
0.5336840000000001
 20
4.80674
 30
0.0
 11
0.5446840000000001
 21
4.80674
 31
0.0
  0
LINE
  5
458
330
18
100
AcDbEntity
  8
DIMS_TEXT
100
AcDbLine
 10
0.533184
 20
5.43174
 30
0.0
 11
0.5446840000000001
 21
5.43174
 31
0.0
  0
ARC
  5
459
330
18
100
AcDbEntity
  8
0
100
AcDbCircle
 10
0.5446840000000001
 20
4.85674
 30
0.0
 40
0.05
100
AcDbArc
 50
270.0
 51
0.0
  0
ARC
  5
45A
330
18
100
AcDbEntity
  8
0
100
AcDbCircle
 10
0.5446840000000001
 20
5.48174
 30
0.0
 40
0.05
100
AcDbArc
 50
270.0
 51
0.0
  0
ARC
  5
45B
330
18
100
AcDbEntity
  8
0
100
AcDbCircle
 10
0.5446840000000001
 20
6.631239999999999
 30
0.0
 40
0.05
100
AcDbArc
 50
0.0
 51
90.0
  0
LINE
  5
45C
330
18
100
AcDbEntity
  8
0
100
AcDbLine
 10
0.594684
 20
4.056239999999999
 30
0.0
 11
0.594684
 21
6.34152
 31
0.0
  0
CIRCLE
  5
466
330
18
100
AcDbEntity
  8
HIDDEN_LINE
100
AcDbCircle
 10
12.187074
 20
4.99924
 30
0.0
 40
0.1685
  0
CIRCLE
  5
467
330
18
100
AcDbEntity
  8
HIDDEN_LINE
100
AcDbCircle
 10
12.187074
 20
4.99924
 30
0.0
 40
0.2
  0
ARC
  5
46B
330
18
100
AcDbEntity
  8
HIDDEN_LINE
100
AcDbCircle
 10
12.187074
 20
4.99924
 30
0.0
 40
0.4375
100
AcDbArc
 50
45.0
 51
225.0
  0
LINE
  5
46C
330
18
100
AcDbEntity
  8
HIDDEN_LINE
100
AcDbLine
 10
12.507714
 20
4.05988
 30
0.0
 11
11.877714
 21
4.68988
 31
0.0
  0
LINE
  5
46D
330
18
100
AcDbEntity
  8
HIDDEN_LINE
100
AcDbLine
 10
13.126433
 20
4.678599
 30
0.0
 11
12.496433
 21
5.308599
 31
0.0
  0
LINE
  5
481
330
18
100
AcDbEntity
  8
HIDDEN_LINE
100
AcDbLine
 10
0.869184
 20
1.86924
 30
0.0
 11
0.869184
 21
1.36924
 31
0.0
  0
LINE
  5
482
330
18
100
AcDbEntity
  8
HIDDEN_LINE
100
AcDbLine
 10
1.197184
 20
1.86924
 30
0.0
 11
1.197184
 21
1.36924
 31
0.0
  0
LINE
  5
483
330
18
100
AcDbEntity
  8
HIDDEN_LINE
100
AcDbLine
 10
2.821184
 20
1.86924
 30
0.0
 11
2.821184
 21
1.36924
 31
0.0
  0
LINE
  5
484
330
18
100
AcDbEntity
  8
HIDDEN_LINE
100
AcDbLine
 10
2.493183999999999
 20
1.86924
 30
0.0
 11
2.493183999999999
 21
1.36924
 31
0.0
  0
LINE
  5
487
330
18
100
AcDbEntity
  8
HIDDEN_LINE
100
AcDbLine
 10
2.080849999999999
 20
4.49424
 30
0.0
 11
1.609518
 21
4.49424
 31
0.0
  0
LINE
  5
48A
330
18
100
AcDbEntity
  8
HIDDEN_LINE
100
AcDbLine
 10
2.080849999999999
 20
6.994239999999999
 30
0.0
 11
1.609518
 21
6.994239999999999
 31
0.0
  0
LINE
  5
48B
330
18
100
AcDbEntity
  8
HIDDEN_LINE
100
AcDbLine
 10
0.6181939999999999
 20
6.383925999999999
 30
0.0
 11
1.583028
 21
6.986646
 31
0.0
  0
LINE
  5
48C
330
18
100
AcDbEntity
  8
HIDDEN_LINE
100
AcDbLine
 10
2.107340999999999
 20
6.986646
 30
0.0
 11
3.072175
 21
6.383925999999999
 31
0.0
  0
LINE
  5
48D
330
18
100
AcDbEntity
  8
HIDDEN_LINE
100
AcDbLine
 10
3.072175
 20
5.104553
 30
0.0
 11
2.107340999999999
 21
4.501833999999999
 31
0.0
  0
LINE
  5
48E
330
18
100
AcDbEntity
  8
HIDDEN_LINE
100
AcDbLine
 10
1.583028
 20
4.501833999999999
 30
0.0
 11
0.6181939999999999
 21
5.104553
 31
0.0
  0
ARC
  5
48F
330
18
100
AcDbEntity
  8
HIDDEN_LINE
100
AcDbCircle
 10
2.080849999999999
 20
6.944239999999999
 30
0.0
 40
0.05
100
AcDbArc
 50
58.007488
 51
90.0
  0
ARC
  5
490
330
18
100
AcDbEntity
  8
HIDDEN_LINE
100
AcDbCircle
 10
1.609518
 20
6.944239999999999
 30
0.0
 40
0.05
100
AcDbArc
 50
90.0
 51
121.992512
  0
ARC
  5
491
330
18
100
AcDbEntity
  8
HIDDEN_LINE
100
AcDbCircle
 10
1.609518
 20
4.54424
 30
0.0
 40
0.05
100
AcDbArc
 50
238.007488
 51
270.0
  0
ARC
  5
492
330
18
100
AcDbEntity
  8
HIDDEN_LINE
100
AcDbCircle
 10
2.080849999999999
 20
4.54424
 30
0.0
 40
0.05
100
AcDbArc
 50
270.0
 51
301.992512
  0
ARC
  5
493
330
18
100
AcDbEntity
  8
HIDDEN_LINE
100
AcDbCircle
 10
0.644684
 20
5.146958999999999
 30
0.0
 40
0.05
100
AcDbArc
 50
180.0
 51
238.007488
  0
ARC
  5
494
330
18
100
AcDbEntity
  8
HIDDEN_LINE
100
AcDbCircle
 10
0.644684
 20
6.34152
 30
0.0
 40
0.05
100
AcDbArc
 50
121.992512
 51
180.0
  0
ARC
  5
495
330
18
100
AcDbEntity
  8
HIDDEN_LINE
100
AcDbCircle
 10
3.045684
 20
5.146958999999999
 30
0.0
 40
0.05
100
AcDbArc
 50
301.992512
 51
360.0
  0
ARC
  5
496
330
18
100
AcDbEntity
  8
HIDDEN_LINE
100
AcDbCircle
 10
3.045684
 20
6.34152
 30
0.0
 40
0.05
100
AcDbArc
 50
360.0
 51
58.007488
  0
LINE
  5
498
330
18
100
AcDbEntity
  8
0
100
AcDbLine
 10
3.095683999999999
 20
4.056239999999999
 30
0.0
 11
3.095683999999999
 21
7.432239999999999
 31
0.0
  0
LINE
  5
4A0
330
18
100
AcDbEntity
  8
HIDDEN_LINE
100
AcDbLine
 10
8.567073999999999
 20
7.283239999999999
 30
0.0
 11
9.067073999999999
 21
7.283239999999999
 31
0.0
  0
LINE
  5
4A1
330
18
100
AcDbEntity
  8
HIDDEN_LINE
100
AcDbLine
 10
8.567073999999999
 20
6.955239999999998
 30
0.0
 11
9.067073999999999
 21
6.955239999999998
 31
0.0
  0
LINE
  5
4A2
330
18
100
AcDbEntity
  8
HIDDEN_LINE
100
AcDbLine
 10
8.567073999999999
 20
4.53324
 30
0.0
 11
9.067073999999999
 21
4.53324
 31
0.0
  0
LINE
  5
4A3
330
18
100
AcDbEntity
  8
HIDDEN_LINE
100
AcDbLine
 10
8.567073999999999
 20
4.205239999999999
 30
0.0
 11
9.067073999999999
 21
4.205239999999999
 31
0.0
  0
LINE
  5
4A4
330
18
100
AcDbEntity
  8
HIDDEN_LINE
100
AcDbLine
 10
3.157183999999999
 20
4.205239999999999
 30
0.0
 11
0.533184
 21
4.205239999999999
 31
0.0
  0
LINE
  5
4A5
330
18
100
AcDbEntity
  8
HIDDEN_LINE
100
AcDbLine
 10
3.157183999999999
 20
4.53324
 30
0.0
 11
0.533184
 21
4.53324
 31
0.0
  0
LINE
  5
4A6
330
18
100
AcDbEntity
  8
HIDDEN_LINE
100
AcDbLine
 10
3.157183999999999
 20
6.955239999999998
 30
0.0
 11
0.533184
 21
6.955239999999998
 31
0.0
  0
LINE
  5
4A7
330
18
100
AcDbEntity
  8
HIDDEN_LINE
100
AcDbLine
 10
3.157183999999999
 20
7.283239999999999
 30
0.0
 11
0.533184
 21
7.283239999999999
 31
0.0
  0
LINE
  5
4AA
330
18
100
AcDbEntity
  8
HIDDEN_LINE
100
AcDbLine
 10
9.903074
 20
1.86924
 30
0.0
 11
9.903074
 21
1.36924
 31
0.0
  0
LINE
  5
4AB
330
18
100
AcDbEntity
  8
HIDDEN_LINE
100
AcDbLine
 10
10.231074
 20
1.86924
 30
0.0
 11
10.231074
 21
1.36924
 31
0.0
  0
LINE
  5
4AC
330
18
100
AcDbEntity
  8
HIDDEN_LINE
100
AcDbLine
 10
12.981074
 20
1.86924
 30
0.0
 11
12.981074
 21
1.36924
 31
0.0
  0
LINE
  5
4AD
330
18
100
AcDbEntity
  8
HIDDEN_LINE
100
AcDbLine
 10
12.653074
 20
1.86924
 30
0.0
 11
12.653074
 21
1.36924
 31
0.0
  0
CIRCLE
  5
4B1
330
18
100
AcDbEntity
  8
0
100
AcDbCircle
 10
2.375513999999999
 20
6.274569999999999
 30
0.0
 40
0.09375
  0
CIRCLE
  5
4B2
330
18
100
AcDbEntity
  8
0
100
AcDbCircle
 10
1.314854
 20
5.21391
 30
0.0
 40
0.09375
  0
DIMENSION
  5
4BE
330
18
100
AcDbEntity
  8
DIMS_TEXT
100
AcDbDimension
280
     0
  2
*D17
 10
1.347254
 20
5.125936
 30
0.0
 11
-0.6098240000000001
 21
8.459704999999999
 31
0.0
 70
   163
  1
SPANNER\PWRENCH\PHOLES
 71
     5
 42
-1.0
 73
     0
 74
     0
 75
     0
  3
STANDARD
100
AcDbDiametricDimension
 15
1.282453999999999
 25
5.301883
 35
0.0
 40
0.0
1001
ACAD
1000
DSTYLE
1002
{
1070
    78
1070
     4
1070
   288
1070
     1
1070
   140
1040
0.15
1070
   271
1070
     3
1070
    41
1040
0.15
1002
}
  0
LEADER
  5
4C9
330
18
100
AcDbEntity
  8
DIMS_TEXT
100
AcDbLeader
  3
STANDARD
 73
     0
 40
0.4
 41
0.5285714285714284
 76
     3
 10
12.245522
 20
5.050830999999999
 30
0.0
 10
14.087005
 20
5.390397
 30
0.0
 10
14.21143
 20
5.390397
 30
0.0
340
4CA
1001
ACAD
1000
DSTYLE
1002
{
1070
    78
1070
     4
1070
   140
1040
0.15
1070
   271
1070
     3
1070
    41
1040
0.15
1002
}
  0
MTEXT
  5
4CA
102
{ACAD_REACTORS
330
4C9
102
}
330
18
100
AcDbEntity
  8
DIMS_TEXT
100
AcDbMText
 10
14.30143
 20
5.390397
 30
0.0
 40
0.15
 41
0.0
 46
0.0
 71
     4
 72
     1
  1
\A1;PIPE\PPLUG
 73
     1
 44
1.0
  0
TEXT
  5
4E4
330
18
100
AcDbEntity
  8
DIMS_TEXT
100
AcDbText
 10
14.423861
 20
-2.378903999999999
 30
0.0
 40
0.2
  1
R121    135616(C1)/135617(C2)    1:1
 41
0.7
100
AcDbText
  0
TEXT
  5
4E5
330
18
100
AcDbEntity
  8
DIMS_TEXT
100
AcDbText
 10
14.234373
 20
-1.473663999999999
 30
0.0
 40
0.15
  1
Tel. (508) 278-2422     Fax (508) 278-7863
 41
0.9
100
AcDbText
  0
TEXT
  5
4E6
330
18
100
AcDbEntity
  8
DIMS_TEXT
100
AcDbText
 10
14.508745
 20
-0.8413959999999999
 30
0.0
 40
0.2
  1
Two Way Right Angle Gear Drive
 41
0.9
100
AcDbText
  0
TEXT
  5
4E7
330
18
100
AcDbEntity
  8
DIMS_TEXT
100
AcDbText
 10
15.095458
 20
-0.378709
 30
0.0
 40
0.3
  1
 MITRPAK
 41
1.5
100
AcDbText
  0
LINE
  5
4E8
330
18
100
AcDbEntity
  8
DIMS_TEXT
100
AcDbLine
 10
14.199092
 20
-1.898872
 30
0.0
 11
19.422462
 21
-1.898872
 31
0.0
  0
LINE
  5
4E9
330
18
100
AcDbEntity
  8
DIMS_TEXT
100
AcDbLine
 10
14.199092
 20
-1.56529
 30
0.0
 11
19.422462
 21
-1.56529
 31
0.0
  0
LINE
  5
4EA
330
18
100
AcDbEntity
  8
DIMS_TEXT
100
AcDbLine
 10
14.199092
 20
-1.239843999999999
 30
0.0
 11
19.422462
 21
-1.239843999999999
 31
0.0
  0
LINE
  5
4EB
330
18
100
AcDbEntity
  8
DIMS_TEXT
100
AcDbLine
 10
14.199092
 20
-0.9143979999999999
 30
0.0
 11
19.422462
 21
-0.9143979999999999
 31
0.0
  0
LINE
  5
4EC
330
18
100
AcDbEntity
  8
DIMS_TEXT
100
AcDbLine
 10
14.199092
 20
-0.491319
 30
0.0
 11
19.422462
 21
-0.491319
 31
0.0
  0
TEXT
  5
4ED
330
18
100
AcDbEntity
  8
DIMS_TEXT
100
AcDbText
 10
14.288728
 20
-1.833782
 30
0.0
 40
0.2
  1
MODEL   PART NUMBER  RATIO
100
AcDbText
  0
LWPOLYLINE
  5
4EE
330
18
100
AcDbEntity
  8
DIMS_TEXT
100
AcDbPolyline
 90
        4
 70
     1
 43
0.0
 10
14.199092
 20
0.029394
 10
19.422462
 20
0.029394
 10
19.422462
 20
-2.509081999999999
 10
14.199092
 20
-2.509081999999999
  0
TEXT
  5
4EF
330
18
100
AcDbEntity
  8
DIMS_TEXT
100
AcDbText
 10
14.234373
 20
-1.149854999999999
 30
0.0
 40
0.15
  1
Uxbridge, MA 01569              U.S.A.
100
AcDbText
  0
LINE
  5
4F0
330
18
100
AcDbEntity
  8
DIMS_TEXT
100
AcDbLine
 10
15.527343
 20
-1.56529
 30
0.0
 11
15.527343
 21
-2.509081999999999
 31
0.0
  0
LINE
  5
4F1
330
18
100
AcDbEntity
  8
DIMS_TEXT
100
AcDbLine
 10
18.216442
 20
-1.56529
 30
0.0
 11
18.216442
 21
-2.509081999999999
 31
0.0
  0
ENDSEC
  0
SECTION
  2
OBJECTS
  0
DICTIONARY
  5
C
330
0
100
AcDbDictionary
281
     1
  3
ACAD_CIP_PREVIOUS_PRODUCT_INFO
350
54F
  3
ACAD_COLOR
350
52E
  3
ACAD_DETAILVIEWSTYLE
350
547
  3
ACAD_GROUP
350
D
  3
ACAD_LAYOUT
350
549
  3
ACAD_MATERIAL
350
4FC
  3
ACAD_MLEADERSTYLE
350
543
  3
ACAD_MLINESTYLE
350
1B
  3
ACAD_PLOTSETTINGS
350
54A
  3
ACAD_PLOTSTYLENAME
350
4FA
  3
ACAD_SCALELIST
350
531
  3
ACAD_SECTIONVIEWSTYLE
350
545
  3
ACAD_TABLESTYLE
350
52F
  3
ACAD_VISUALSTYLE
350
515
  3
ACDB_RECOMPOSE_DATA
350
599
  3
AcDbVariableDictionary
350
588
  0
DICTIONARY
  5
57C
330
E
100
AcDbDictionary
280
     1
281
     1
  3
ADSK_XREC_LAYER_RECONCILED
360
57D
  0
DICTIONARY
  5
57E
330
24
100
AcDbDictionary
280
     1
281
     1
  3
ADSK_XREC_LAYER_RECONCILED
360
57F
  0
DICTIONARY
  5
580
330
25
100
AcDbDictionary
280
     1
281
     1
  3
ADSK_XREC_LAYER_RECONCILED
360
581
  0
DICTIONARY
  5
582
330
26
100
AcDbDictionary
280
     1
281
     1
  3
ADSK_XREC_LAYER_RECONCILED
360
583
  0
DICTIONARY
  5
584
330
28
100
AcDbDictionary
280
     1
281
     1
  3
ADSK_XREC_LAYER_RECONCILED
360
585
  0
DICTIONARY
  5
586
330
29
100
AcDbDictionary
280
     1
281
     1
  3
ADSK_XREC_LAYER_RECONCILED
360
587
  0
XRECORD
  5
54F
102
{ACAD_REACTORS
330
C
102
}
330
C
100
AcDbXrecord
280
     1
300
ACDLT
300
2014
300
ACDLT_F_S
  0
DICTIONARY
  5
52E
102
{ACAD_REACTORS
330
C
102
}
330
C
100
AcDbDictionary
281
     1
  0
DICTIONARY
  5
547
102
{ACAD_REACTORS
330
C
102
}
330
C
100
AcDbDictionary
281
     1
  3
Imperial24
350
548
  0
DICTIONARY
  5
D
102
{ACAD_REACTORS
330
C
102
}
330
C
100
AcDbDictionary
281
     1
  0
DICTIONARY
  5
549
102
{ACAD_REACTORS
330
C
102
}
330
C
100
AcDbDictionary
281
     1
  3
Layout1
350
54C
  3
Model
350
54B
  0
DICTIONARY
  5
4FC
102
{ACAD_REACTORS
330
C
102
}
330
C
100
AcDbDictionary
281
     1
  3
ByBlock
350
505
  3
ByLayer
350
4FD
  3
Global
350
50D
  0
DICTIONARY
  5
543
102
{ACAD_REACTORS
330
C
102
}
330
C
100
AcDbDictionary
281
     1
  3
Standard
350
544
  0
DICTIONARY
  5
1B
102
{ACAD_REACTORS
330
C
102
}
330
C
100
AcDbDictionary
281
     1
  3
STANDARD
350
1C
  0
DICTIONARY
  5
54A
102
{ACAD_REACTORS
330
C
102
}
330
C
100
AcDbDictionary
281
     1
  0
ACDBDICTIONARYWDFLT
  5
4FA
102
{ACAD_REACTORS
330
C
102
}
330
C
100
AcDbDictionary
281
     1
  3
Normal
350
4FB
100
AcDbDictionaryWithDefault
340
4FB
  0
DICTIONARY
  5
531
102
{ACAD_REACTORS
330
C
102
}
330
C
100
AcDbDictionary
281
     1
  3
A0
350
532
  3
A1
350
533
  3
A2
350
534
  3
A3
350
535
  3
A4
350
536
  3
A5
350
537
  3
A6
350
538
  3
A7
350
539
  3
A8
350
53A
  3
A9
350
53B
  3
B0
350
53C
  3
B1
350
53D
  3
B2
350
53E
  3
B3
350
53F
  3
B4
350
540
  3
B5
350
541
  3
B6
350
542
  0
DICTIONARY
  5
545
102
{ACAD_REACTORS
330
C
102
}
330
C
100
AcDbDictionary
281
     1
  3
Imperial24
350
546
  0
DICTIONARY
  5
52F
102
{ACAD_REACTORS
330
C
102
}
330
C
100
AcDbDictionary
281
     1
  3
Standard
350
530
  0
DICTIONARY
  5
515
102
{ACAD_REACTORS
330
C
102
}
330
C
100
AcDbDictionary
281
     1
  3
2dWireframe
350
51B
  3
Basic
350
51A
  3
Brighten
350
521
  3
ColorChange
350
525
  3
Conceptual
350
51E
  3
Dim
350
520
  3
EdgeColorOff
350
52D
  3
Facepattern
350
524
  3
Flat
350
516
  3
FlatWithEdges
350
517
  3
Gouraud
350
518
  3
GouraudWithEdges
350
519
  3
Hidden
350
51D
  3
JitterOff
350
52B
  3
Linepattern
350
523
  3
OverhangOff
350
52C
  3
Realistic
350
51F
  3
Shaded
350
52A
  3
Shaded with edges
350
529
  3
Shades of Gray
350
526
  3
Sketchy
350
527
  3
Thicken
350
522
  3
Wireframe
350
51C
  3
X-Ray
350
528
  0
XRECORD
  5
599
102
{ACAD_REACTORS
330
C
102
}
330
C
100
AcDbXrecord
280
     1
 90
        1
330
530
330
546
330
548
  0
DICTIONARY
  5
588
102
{ACAD_REACTORS
330
C
102
}
330
C
100
AcDbDictionary
281
     1
  3
CANNOSCALE
350
58E
  3
CMLEADERSTYLE
350
58A
  3
CTABLESTYLE
350
589
  3
CVIEWDETAILSTYLE
350
58B
  3
CVIEWSECTIONSTYLE
350
58C
  3
LAYEREVAL
350
590
  3
LAYERNOTIFY
350
591
  3
LIGHTINGUNITS
350
58F
  3
MSLTSCALE
350
58D
  0
XRECORD
  5
57D
102
{ACAD_REACTORS
330
57C
102
}
330
57C
100
AcDbXrecord
280
     1
290
     1
  0
XRECORD
  5
57F
102
{ACAD_REACTORS
330
57E
102
}
330
57E
100
AcDbXrecord
280
     1
290
     1
  0
XRECORD
  5
581
102
{ACAD_REACTORS
330
580
102
}
330
580
100
AcDbXrecord
280
     1
290
     1
  0
XRECORD
  5
583
102
{ACAD_REACTORS
330
582
102
}
330
582
100
AcDbXrecord
280
     1
290
     1
  0
XRECORD
  5
585
102
{ACAD_REACTORS
330
584
102
}
330
584
100
AcDbXrecord
280
     1
290
     1
  0
XRECORD
  5
587
102
{ACAD_REACTORS
330
586
102
}
330
586
100
AcDbXrecord
280
     1
290
     1
  0
ACDBDETAILVIEWSTYLE
  5
548
102
{ACAD_XDICTIONARY
360
597
102
}
102
{ACAD_REACTORS
330
547
102
}
330
547
100
AcDbModelDocViewStyle
 70
     0
  3
Imperial24
290
     0
100
AcDbDetailViewStyle
 70
     0
 71
     0
 90
        3
 71
     1
340
F
 62
   256
 40
0.24
340
0
 62
   256
 40
0.24
300

 40
0.36
280
     3
 71
     2
340
14
 90
       25
 62
   256
 71
     3
340
F
 62
   256
 40
0.24
 90
        1
 40
0.75
 90
        1
300
%<\AcVar ViewType \f "%tc1">% %<\AcVar ViewDetailId>%\PSCALE %<\AcVar ViewScale \f "%sn">%
 71
     4
340
14
 90
       25
 62
   256
340
14
 90
       25
 62
   256
280
     0
  0
LAYOUT
  5
54C
102
{ACAD_REACTORS
330
549
102
}
330
549
100
AcDbPlotSettings
  1

  2
HP OfficeJet Pro 9010 series
  4

  6

 40
0.0
 41
0.0
 42
0.0
 43
0.0
 44
0.0
 45
0.0
 46
0.0
 47
0.0
 48
0.0
 49
0.0
140
0.0
141
0.0
142
1.0
143
1.0
 70
   688
 72
     0
 73
     0
 74
     5
  7

 75
    16
147
1.0
 76
     0
 77
     2
 78
   300
148
0.0
149
0.0
100
AcDbLayout
  1
Layout1
 70
     1
 71
     1
 10
0.0
 20
0.0
 11
12.0
 21
9.0
 12
0.0
 22
0.0
 32
0.0
 14
1.000000000000000E+20
 24
1.000000000000000E+20
 34
1.000000000000000E+20
 15
-1.000000000000000E+20
 25
-1.000000000000000E+20
 35
-1.000000000000000E+20
146
0.0
 13
0.0
 23
0.0
 33
0.0
 16
1.0
 26
0.0
 36
0.0
 17
0.0
 27
1.0
 37
0.0
 76
     0
330
15
  0
LAYOUT
  5
54B
102
{ACAD_REACTORS
330
549
102
}
330
549
100
AcDbPlotSettings
  1

  2
HP OfficeJet Pro 9010 series
  4

  6

 40
0.0
 41
0.0
 42
0.0
 43
0.0
 44
0.0
 45
0.0
 46
0.0
 47
0.0
 48
0.0
 49
0.0
140
0.0
141
0.0
142
1.0
143
1.0
 70
  1712
 72
     0
 73
     0
 74
     0
  7

 75
     0
147
1.0
 76
     0
 77
     2
 78
   300
148
0.0
149
0.0
100
AcDbLayout
  1
Model
 70
     1
 71
     0
 10
0.0
 20
0.0
 11
12.0
 21
9.0
 12
0.0
 22
0.0
 32
0.0
 14
0.0
 24
0.0
 34
0.0
 15
0.0
 25
0.0
 35
0.0
146
0.0
 13
0.0
 23
0.0
 33
0.0
 16
1.0
 26
0.0
 36
0.0
 17
0.0
 27
1.0
 37
0.0
 76
     0
330
18
331
4F2
  0
MATERIAL
  5
505
102
{ACAD_XDICTIONARY
360
506
102
}
102
{ACAD_REACTORS
330
4FC
102
}
330
4FC
100
AcDbMaterial
  1
ByBlock
 72
     0
 43
0.0208333333333333
 43
0.0
 43
0.0
 43
0.0
 43
0.0
 43
0.0208333333333333
 43
0.0
 43
0.0
 43
0.0
 43
0.0
 43
1.0
 43
0.0
 43
0.0
 43
0.0
 43
0.0
 43
1.0
 77
     0
 47
0.0208333333333333
 47
0.0
 47
0.0
 47
0.0
 47
0.0
 47
0.0208333333333333
 47
0.0
 47
0.0
 47
0.0
 47
0.0
 47
1.0
 47
0.0
 47
0.0
 47
0.0
 47
0.0
 47
1.0
171
     0
 49
0.0208333333333333
 49
0.0
 49
0.0
 49
0.0
 49
0.0
 49
0.0208333333333333
 49
0.0
 49
0.0
 49
0.0
 49
0.0
 49
1.0
 49
0.0
 49
0.0
 49
0.0
 49
0.0
 49
1.0
175
     0
142
0.0208333333333333
142
0.0
142
0.0
142
0.0
142
0.0
142
0.0208333333333333
142
0.0
142
0.0
142
0.0
142
0.0
142
1.0
142
0.0
142
0.0
142
0.0
142
0.0
142
1.0
179
     0
144
0.0208333333333333
144
0.0
144
0.0
144
0.0
144
0.0
144
0.0208333333333333
144
0.0
144
0.0
144
0.0
144
0.0
144
1.0
144
0.0
144
0.0
144
0.0
144
0.0
144
1.0
147
0.0208333333333333
147
0.0
147
0.0
147
0.0
147
0.0
147
0.0208333333333333
147
0.0
147
0.0
147
0.0
147
0.0
147
1.0
147
0.0
147
0.0
147
0.0
147
0.0
147
1.0
  0
MATERIAL
  5
4FD
102
{ACAD_XDICTIONARY
360
4FE
102
}
102
{ACAD_REACTORS
330
4FC
102
}
330
4FC
100
AcDbMaterial
  1
ByLayer
 72
     0
 43
0.0208333333333333
 43
0.0
 43
0.0
 43
0.0
 43
0.0
 43
0.0208333333333333
 43
0.0
 43
0.0
 43
0.0
 43
0.0
 43
1.0
 43
0.0
 43
0.0
 43
0.0
 43
0.0
 43
1.0
 77
     0
 47
0.0208333333333333
 47
0.0
 47
0.0
 47
0.0
 47
0.0
 47
0.0208333333333333
 47
0.0
 47
0.0
 47
0.0
 47
0.0
 47
1.0
 47
0.0
 47
0.0
 47
0.0
 47
0.0
 47
1.0
171
     0
 49
0.0208333333333333
 49
0.0
 49
0.0
 49
0.0
 49
0.0
 49
0.0208333333333333
 49
0.0
 49
0.0
 49
0.0
 49
0.0
 49
1.0
 49
0.0
 49
0.0
 49
0.0
 49
0.0
 49
1.0
175
     0
142
0.0208333333333333
142
0.0
142
0.0
142
0.0
142
0.0
142
0.0208333333333333
142
0.0
142
0.0
142
0.0
142
0.0
142
1.0
142
0.0
142
0.0
142
0.0
142
0.0
142
1.0
179
     0
144
0.0208333333333333
144
0.0
144
0.0
144
0.0
144
0.0
144
0.0208333333333333
144
0.0
144
0.0
144
0.0
144
0.0
144
1.0
144
0.0
144
0.0
144
0.0
144
0.0
144
1.0
147
0.0208333333333333
147
0.0
147
0.0
147
0.0
147
0.0
147
0.0208333333333333
147
0.0
147
0.0
147
0.0
147
0.0
147
1.0
147
0.0
147
0.0
147
0.0
147
0.0
147
1.0
  0
MATERIAL
  5
50D
102
{ACAD_XDICTIONARY
360
50E
102
}
102
{ACAD_REACTORS
330
4FC
102
}
330
4FC
100
AcDbMaterial
  1
Global
 72
     0
 43
0.0208333333333333
 43
0.0
 43
0.0
 43
0.0
 43
0.0
 43
0.0208333333333333
 43
0.0
 43
0.0
 43
0.0
 43
0.0
 43
1.0
 43
0.0
 43
0.0
 43
0.0
 43
0.0
 43
1.0
 77
     0
 47
0.0208333333333333
 47
0.0
 47
0.0
 47
0.0
 47
0.0
 47
0.0208333333333333
 47
0.0
 47
0.0
 47
0.0
 47
0.0
 47
1.0
 47
0.0
 47
0.0
 47
0.0
 47
0.0
 47
1.0
171
     0
 49
0.0208333333333333
 49
0.0
 49
0.0
 49
0.0
 49
0.0
 49
0.0208333333333333
 49
0.0
 49
0.0
 49
0.0
 49
0.0
 49
1.0
 49
0.0
 49
0.0
 49
0.0
 49
0.0
 49
1.0
175
     0
142
0.0208333333333333
142
0.0
142
0.0
142
0.0
142
0.0
142
0.0208333333333333
142
0.0
142
0.0
142
0.0
142
0.0
142
1.0
142
0.0
142
0.0
142
0.0
142
0.0
142
1.0
179
     0
144
0.0208333333333333
144
0.0
144
0.0
144
0.0
144
0.0
144
0.0208333333333333
144
0.0
144
0.0
144
0.0
144
0.0
144
1.0
144
0.0
144
0.0
144
0.0
144
0.0
144
1.0
147
0.0208333333333333
147
0.0
147
0.0
147
0.0
147
0.0
147
0.0208333333333333
147
0.0
147
0.0
147
0.0
147
0.0
147
1.0
147
0.0
147
0.0
147
0.0
147
0.0
147
1.0
  0
MLEADERSTYLE
  5
544
102
{ACAD_REACTORS
330
543
102
}
330
543
100
AcDbMLeaderStyle
179
     2
170
     2
171
     1
172
     0
 90
        2
 40
0.0
 41
0.0
173
     1
 91
-1056964608
340
12
 92
       -2
290
     1
 42
0.09
291
     1
 43
0.36
  3
Standard
 44
0.18
300

342
F
174
     1
178
     6
175
     1
176
     0
 93
-1056964608
 45
0.18
292
     0
297
     0
 46
0.18
 94
-1056964608
 47
1.0
 49
1.0
140
1.0
293
     1
141
0.0
294
     1
177
     0
142
1.0
295
     0
296
     0
143
0.125
271
     0
272
     9
273
     9
298
     0
  0
MLINESTYLE
  5
1C
102
{ACAD_REACTORS
330
1B
102
}
330
1B
100
AcDbMlineStyle
  2
STANDARD
 70
     0
  3

 62
   256
 51
90.0
 52
90.0
 71
     2
 49
0.5
 62
   256
  6
BYLAYER
 49
-0.5
 62
   256
  6
BYLAYER
  0
ACDBPLACEHOLDER
  5
4FB
102
{ACAD_REACTORS
330
4FA
102
}
330
4FA
  0
SCALE
  5
532
102
{ACAD_REACTORS
330
531
102
}
330
531
100
AcDbScale
 70
     0
300
1:1
140
1.0
141
1.0
290
     1
  0
SCALE
  5
533
102
{ACAD_REACTORS
330
531
102
}
330
531
100
AcDbScale
 70
     0
300
1/128" = 1'-0"
140
0.0078125
141
12.0
290
     0
  0
SCALE
  5
534
102
{ACAD_REACTORS
330
531
102
}
330
531
100
AcDbScale
 70
     0
300
1/64" = 1'-0"
140
0.015625
141
12.0
290
     0
  0
SCALE
  5
535
102
{ACAD_REACTORS
330
531
102
}
330
531
100
AcDbScale
 70
     0
300
1/32" = 1'-0"
140
0.03125
141
12.0
290
     0
  0
SCALE
  5
536
102
{ACAD_REACTORS
330
531
102
}
330
531
100
AcDbScale
 70
     0
300
1/16" = 1'-0"
140
0.0625
141
12.0
290
     0
  0
SCALE
  5
537
102
{ACAD_REACTORS
330
531
102
}
330
531
100
AcDbScale
 70
     0
300
3/32" = 1'-0"
140
0.09375
141
12.0
290
     0
  0
SCALE
  5
538
102
{ACAD_REACTORS
330
531
102
}
330
531
100
AcDbScale
 70
     0
300
1/8" = 1'-0"
140
0.125
141
12.0
290
     0
  0
SCALE
  5
539
102
{ACAD_REACTORS
330
531
102
}
330
531
100
AcDbScale
 70
     0
300
3/16" = 1'-0"
140
0.1875
141
12.0
290
     0
  0
SCALE
  5
53A
102
{ACAD_REACTORS
330
531
102
}
330
531
100
AcDbScale
 70
     0
300
1/4" = 1'-0"
140
0.25
141
12.0
290
     0
  0
SCALE
  5
53B
102
{ACAD_REACTORS
330
531
102
}
330
531
100
AcDbScale
 70
     0
300
3/8" = 1'-0"
140
0.375
141
12.0
290
     0
  0
SCALE
  5
53C
102
{ACAD_REACTORS
330
531
102
}
330
531
100
AcDbScale
 70
     0
300
1/2" = 1'-0"
140
0.5
141
12.0
290
     0
  0
SCALE
  5
53D
102
{ACAD_REACTORS
330
531
102
}
330
531
100
AcDbScale
 70
     0
300
3/4" = 1'-0"
140
0.75
141
12.0
290
     0
  0
SCALE
  5
53E
102
{ACAD_REACTORS
330
531
102
}
330
531
100
AcDbScale
 70
     0
300
1" = 1'-0"
140
1.0
141
12.0
290
     0
  0
SCALE
  5
53F
102
{ACAD_REACTORS
330
531
102
}
330
531
100
AcDbScale
 70
     0
300
1-1/2" = 1'-0"
140
1.5
141
12.0
290
     0
  0
SCALE
  5
540
102
{ACAD_REACTORS
330
531
102
}
330
531
100
AcDbScale
 70
     0
300
3" = 1'-0"
140
3.0
141
12.0
290
     0
  0
SCALE
  5
541
102
{ACAD_REACTORS
330
531
102
}
330
531
100
AcDbScale
 70
     0
300
6" = 1'-0"
140
6.0
141
12.0
290
     0
  0
SCALE
  5
542
102
{ACAD_REACTORS
330
531
102
}
330
531
100
AcDbScale
 70
     0
300
1'-0" = 1'-0"
140
12.0
141
12.0
290
     0
  0
ACDBSECTIONVIEWSTYLE
  5
546
102
{ACAD_XDICTIONARY
360
595
102
}
102
{ACAD_REACTORS
330
545
102
}
330
545
100
AcDbModelDocViewStyle
 70
     0
  3
Imperial24
290
     0
100
AcDbSectionViewStyle
 70
     0
 71
     0
 90
       78
 71
     1
340
F
 62
   256
 40
0.24
340
0
340
0
 62
   256
 40
0.24
300
I, O, Q, S, X, Z
 40
0.48
 90
        3
 40
0.18
 90
        1
 71
     2
340
14
 90
       25
 62
   256
340
14
 90
       50
 62
   256
 40
0.24
 40
0.0
 40
0.24
 71
     3
340
F
 62
   256
 40
0.24
 90
        1
 40
0.75
 90
        1
300
%<\AcVar ViewType \f "%tc1">% %<\AcVar ViewSectionStartId>%-%<\AcVar ViewSectionEndId>%\PSCALE %<\AcVar ViewScale \f "%sn">%
 71
     4
 62
   256
 62
   257
300
ANSI31
 40
1.0
 90
        0
290
     0
290
     0
 90
        6
 40
0.0
 40
1.570796326794896
 40
0.2617993877991494
 40
1.308996938995747
 40
-0.2617993877991494
 40
1.832595714594046
  0
TABLESTYLE
  5
530
102
{ACAD_XDICTIONARY
360
593
102
}
102
{ACAD_REACTORS
330
52F
102
}
330
52F
100
AcDbTableStyle
280
     0
  3
Standard
 70
     0
 71
     0
 40
0.06
 41
0.06
280
     0
281
     0
  7
STANDARD
140
0.18
170
     2
 62
     0
 63
     7
283
     0
 90
      512
 91
        0
  1

274
    -2
284
     1
 64
     0
275
    -2
285
     1
 65
     0
276
    -2
286
     1
 66
     0
277
    -2
287
     1
 67
     0
278
    -2
288
     1
 68
     0
279
    -2
289
     1
 69
     0
  7
STANDARD
140
0.25
170
     5
 62
     0
 63
     7
283
     0
 90
      512
 91
        0
  1

274
    -2
284
     1
 64
     0
275
    -2
285
     1
 65
     0
276
    -2
286
     1
 66
     0
277
    -2
287
     1
 67
     0
278
    -2
288
     1
 68
     0
279
    -2
289
     1
 69
     0
  7
STANDARD
140
0.18
170
     5
 62
     0
 63
     7
283
     0
 90
      512
 91
        0
  1

274
    -2
284
     1
 64
     0
275
    -2
285
     1
 65
     0
276
    -2
286
     1
 66
     0
277
    -2
287
     1
 67
     0
278
    -2
288
     1
 68
     0
279
    -2
289
     1
 69
     0
  0
VISUALSTYLE
  5
51B
102
{ACAD_REACTORS
330
515
102
}
330
515
100
AcDbVisualStyle
  2
2dWireframe
 70
     4
177
     3
291
     0
 70
    58
 90
        0
176
     1
 90
        2
176
     1
 90
        0
176
     1
 90
        0
176
     1
 40
0.6
176
     1
 40
30.0
176
     1
 62
     7
420
 16777215
176
     1
 90
        1
176
     1
 90
        4
176
     1
 62
     7
176
     1
 62
   257
176
     1
 90
        1
176
     1
 90
        1
176
     1
 40
1.0
176
     1
 90
        0
176
     1
 62
   257
176
     1
 40
1.0
176
     1
 90
        1
176
     1
 90
        6
176
     1
 90
        2
176
     1
 62
     7
176
     1
 90
        5
176
     1
 90
        0
176
     1
 90
        0
176
     1
290
     0
176
     1
 90
        1
176
     1
 40
0.0
176
     1
 90
        0
176
     1
290
     1
176
     1
290
     1
176
     1
290
     0
176
     1
290
     0
176
     1
290
     0
176
     1
290
     0
176
     1
290
     0
176
     1
290
     0
176
     1
290
     0
176
     1
 90
       50
176
     1
 40
0.0
176
     1
 40
1.0
176
     1
 90
        0
176
     1
 62
    18
420
        0
176
     1
 90
       50
176
     1
 90
        3
176
     1
 62
     5
420
      255
176
     1
290
     0
176
     1
 90
       50
176
     1
 90
       50
176
     1
 90
       50
176
     1
290
     0
176
     1
 90
       50
176
     1
 62
   256
176
     0
 40
1.0
176
     0
 90
        2
176
     1
  1
strokes_ogs.tif
176
     1
290
     0
176
     1
 40
1.0
176
     1
 40
1.0
176
     1
  0
VISUALSTYLE
  5
51A
102
{ACAD_REACTORS
330
515
102
}
330
515
100
AcDbVisualStyle
  2
Basic
 70
     7
177
     3
291
     1
 70
    58
 90
        1
176
     1
 90
        0
176
     1
 90
        1
176
     1
 90
        0
176
     1
 40
0.6
176
     1
 40
30.0
176
     1
 62
     7
420
 16777215
176
     1
 90
        0
176
     1
 90
        4
176
     1
 62
     7
176
     1
 62
   257
176
     1
 90
        1
176
     1
 90
        1
176
     1
 40
1.0
176
     1
 90
        8
176
     1
 62
     7
176
     1
 40
1.0
176
     1
 90
        1
176
     1
 90
        6
176
     1
 90
        2
176
     1
 62
     7
176
     1
 90
        5
176
     1
 90
        0
176
     1
 90
        0
176
     1
290
     0
176
     1
 90
        1
176
     1
 40
0.0
176
     1
 90
        0
176
     1
290
     0
176
     1
290
     1
176
     1
290
     1
176
     1
290
     0
176
     1
290
     0
176
     1
290
     0
176
     1
290
     0
176
     1
290
     0
176
     1
290
     0
176
     1
 90
       50
176
     1
 40
0.0
176
     1
 40
1.0
176
     1
 90
        0
176
     1
 62
    18
420
        0
176
     1
 90
       50
176
     1
 90
        3
176
     1
 62
     5
420
      255
176
     1
290
     0
176
     1
 90
       50
176
     1
 90
       50
176
     1
 90
       50
176
     1
290
     0
176
     1
 90
       50
176
     1
 62
   256
176
     0
 40
1.0
176
     0
 90
        2
176
     1
  1
strokes_ogs.tif
176
     1
290
     0
176
     1
 40
1.0
176
     1
 40
1.0
176
     1
  0
VISUALSTYLE
  5
521
102
{ACAD_REACTORS
330
515
102
}
330
515
100
AcDbVisualStyle
  2
Brighten
 70
    12
177
     3
291
     1
 70
    58
 90
        2
176
     1
 90
        2
176
     1
 90
        0
176
     1
 90
        0
176
     1
 40
0.6
176
     1
 40
30.0
176
     1
 62
     7
420
 16777215
176
     1
 90
        1
176
     1
 90
        4
176
     1
 62
     7
176
     1
 62
   257
176
     1
 90
        1
176
     1
 90
        1
176
     1
 40
1.0
176
     1
 90
        8
176
     1
 62
     7
176
     1
 40
1.0
176
     1
 90
        1
176
     1
 90
        6
176
     1
 90
        2
176
     1
 62
     7
176
     1
 90
        5
176
     1
 90
        0
176
     1
 90
        0
176
     1
290
     0
176
     1
 90
        1
176
     1
 40
50.0
176
     1
 90
        0
176
     1
290
     0
176
     1
290
     1
176
     1
290
     1
176
     1
290
     0
176
     1
290
     0
176
     1
290
     0
176
     1
290
     0
176
     1
290
     0
176
     1
290
     0
176
     1
 90
       50
176
     1
 40
0.0
176
     1
 40
1.0
176
     1
 90
        0
176
     1
 62
    18
420
        0
176
     1
 90
       50
176
     1
 90
        3
176
     1
 62
     5
420
      255
176
     1
290
     0
176
     1
 90
       50
176
     1
 90
       50
176
     1
 90
       50
176
     1
290
     0
176
     1
 90
       50
176
     1
 62
   256
176
     0
 40
1.0
176
     0
 90
        2
176
     1
  1
strokes_ogs.tif
176
     1
290
     0
176
     1
 40
1.0
176
     1
 40
1.0
176
     1
  0
VISUALSTYLE
  5
525
102
{ACAD_REACTORS
330
515
102
}
330
515
100
AcDbVisualStyle
  2
ColorChange
 70
    16
177
     3
291
     1
 70
    58
 90
        2
176
     1
 90
        2
176
     1
 90
        3
176
     1
 90
        0
176
     1
 40
0.6
176
     1
 40
30.0
176
     1
 62
     8
420
  8421504
176
     1
 90
        1
176
     1
 90
        4
176
     1
 62
     7
176
     1
 62
   257
176
     1
 90
        1
176
     1
 90
        1
176
     1
 40
1.0
176
     1
 90
        8
176
     1
 62
     8
420
  8421504
176
     1
 40
1.0
176
     1
 90
        1
176
     1
 90
        6
176
     1
 90
        2
176
     1
 62
     7
176
     1
 90
        5
176
     1
 90
        0
176
     1
 90
        0
176
     1
290
     0
176
     1
 90
        1
176
     1
 40
0.0
176
     1
 90
        0
176
     1
290
     0
176
     1
290
     1
176
     1
290
     1
176
     1
290
     0
176
     1
290
     0
176
     1
290
     0
176
     1
290
     0
176
     1
290
     0
176
     1
290
     0
176
     1
 90
       50
176
     1
 40
0.0
176
     1
 40
1.0
176
     1
 90
        0
176
     1
 62
    18
420
        0
176
     1
 90
       50
176
     1
 90
        3
176
     1
 62
     5
420
      255
176
     1
290
     0
176
     1
 90
       50
176
     1
 90
       50
176
     1
 90
       50
176
     1
290
     0
176
     1
 90
       50
176
     1
 62
   256
176
     0
 40
1.0
176
     0
 90
        2
176
     1
  1
strokes_ogs.tif
176
     1
290
     0
176
     1
 40
1.0
176
     1
 40
1.0
176
     1
  0
VISUALSTYLE
  5
51E
102
{ACAD_REACTORS
330
515
102
}
330
515
100
AcDbVisualStyle
  2
Conceptual
 70
     9
177
     3
291
     0
 70
    58
 90
        3
176
     1
 90
        2
176
     1
 90
        0
176
     1
 90
        0
176
     1
 40
0.6
176
     1
 40
30.0
176
     1
 62
     7
420
 16777215
176
     1
 90
        2
176
     1
 90
        2
176
     1
 62
     7
176
     1
 62
   257
176
     1
 90
        1
176
     1
 90
        1
176
     1
 40
179.0
176
     1
 90
        8
176
     1
 62
     7
176
     1
 40
1.0
176
     1
 90
        1
176
     1
 90
        6
176
     1
 90
        2
176
     1
 62
     7
176
     1
 90
        3
176
     1
 90
        0
176
     1
 90
        0
176
     1
290
     0
176
     1
 90
        1
176
     1
 40
0.0
176
     1
 90
        0
176
     1
290
     0
176
     1
290
     1
176
     1
290
     1
176
     1
290
     0
176
     1
290
     0
176
     1
290
     0
176
     1
290
     0
176
     1
290
     0
176
     1
290
     0
176
     1
 90
       50
176
     1
 40
0.0
176
     1
 40
1.0
176
     1
 90
        0
176
     1
 62
    18
420
        0
176
     1
 90
       50
176
     1
 90
        3
176
     1
 62
     5
420
      255
176
     1
290
     0
176
     1
 90
       50
176
     1
 90
       50
176
     1
 90
       50
176
     1
290
     0
176
     1
 90
       50
176
     1
 62
   256
176
     0
 40
1.0
176
     0
 90
        2
176
     1
  1
strokes_ogs.tif
176
     1
290
     0
176
     1
 40
1.0
176
     1
 40
1.0
176
     1
  0
VISUALSTYLE
  5
520
102
{ACAD_REACTORS
330
515
102
}
330
515
100
AcDbVisualStyle
  2
Dim
 70
    11
177
     3
291
     1
 70
    58
 90
        2
176
     1
 90
        2
176
     1
 90
        0
176
     1
 90
        0
176
     1
 40
0.6
176
     1
 40
30.0
176
     1
 62
     7
420
 16777215
176
     1
 90
        1
176
     1
 90
        4
176
     1
 62
     7
176
     1
 62
   257
176
     1
 90
        1
176
     1
 90
        1
176
     1
 40
1.0
176
     1
 90
        8
176
     1
 62
     7
176
     1
 40
1.0
176
     1
 90
        1
176
     1
 90
        6
176
     1
 90
        2
176
     1
 62
     7
176
     1
 90
        5
176
     1
 90
        0
176
     1
 90
        0
176
     1
290
     0
176
     1
 90
        1
176
     1
 40
-50.0
176
     1
 90
        0
176
     1
290
     0
176
     1
290
     1
176
     1
290
     1
176
     1
290
     0
176
     1
290
     0
176
     1
290
     0
176
     1
290
     0
176
     1
290
     0
176
     1
290
     0
176
     1
 90
       50
176
     1
 40
0.0
176
     1
 40
1.0
176
     1
 90
        0
176
     1
 62
    18
420
        0
176
     1
 90
       50
176
     1
 90
        3
176
     1
 62
     5
420
      255
176
     1
290
     0
176
     1
 90
       50
176
     1
 90
       50
176
     1
 90
       50
176
     1
290
     0
176
     1
 90
       50
176
     1
 62
   256
176
     0
 40
1.0
176
     0
 90
        2
176
     1
  1
strokes_ogs.tif
176
     1
290
     0
176
     1
 40
1.0
176
     1
 40
1.0
176
     1
  0
VISUALSTYLE
  5
52D
102
{ACAD_REACTORS
330
515
102
}
330
515
100
AcDbVisualStyle
  2
EdgeColorOff
 70
    22
177
     3
291
     1
 70
    58
 90
        2
176
     0
 90
        2
176
     0
 90
        0
176
     0
 90
        0
176
     0
 40
0.6
176
     0
 40
30.0
176
     0
 62
     7
420
 16777215
176
     0
 90
        1
176
     0
 90
        4
176
     0
 62
     7
176
     0
 62
   257
176
     0
 90
        1
176
     0
 90
        1
176
     0
 40
1.0
176
     0
 90
        8
176
     2
 62
     7
176
     0
 40
1.0
176
     0
 90
        1
176
     0
 90
        6
176
     0
 90
        2
176
     0
 62
     7
176
     0
 90
        5
176
     0
 90
        0
176
     0
 90
        0
176
     0
290
     0
176
     0
 90
        1
176
     0
 40
0.0
176
     0
 90
        0
176
     0
290
     0
176
     1
290
     1
176
     1
290
     1
176
     1
290
     0
176
     1
290
     0
176
     1
290
     0
176
     1
290
     0
176
     1
290
     0
176
     1
290
     0
176
     1
 90
       50
176
     0
 40
0.0
176
     0
 40
1.0
176
     0
 90
        0
176
     0
 62
    18
420
        0
176
     0
 90
       50
176
     0
 90
        3
176
     0
 62
     5
420
      255
176
     0
290
     0
176
     1
 90
       50
176
     0
 90
       50
176
     0
 90
       50
176
     0
290
     0
176
     1
 90
       50
176
     0
 62
   256
176
     0
 40
1.0
176
     0
 90
        2
176
     0
  1
strokes_ogs.tif
176
     0
290
     0
176
     1
 40
1.0
176
     0
 40
1.0
176
     0
  0
VISUALSTYLE
  5
524
102
{ACAD_REACTORS
330
515
102
}
330
515
100
AcDbVisualStyle
  2
Facepattern
 70
    15
177
     3
291
     1
 70
    58
 90
        2
176
     1
 90
        2
176
     1
 90
        0
176
     1
 90
        0
176
     1
 40
0.6
176
     1
 40
30.0
176
     1
 62
     7
420
 16777215
176
     1
 90
        1
176
     1
 90
        4
176
     1
 62
     7
176
     1
 62
   257
176
     1
 90
        1
176
     1
 90
        1
176
     1
 40
1.0
176
     1
 90
        8
176
     1
 62
     7
176
     1
 40
1.0
176
     1
 90
        1
176
     1
 90
        6
176
     1
 90
        2
176
     1
 62
     7
176
     1
 90
        5
176
     1
 90
        0
176
     1
 90
        0
176
     1
290
     0
176
     1
 90
        1
176
     1
 40
0.0
176
     1
 90
        0
176
     1
290
     0
176
     1
290
     1
176
     1
290
     1
176
     1
290
     0
176
     1
290
     0
176
     1
290
     0
176
     1
290
     0
176
     1
290
     0
176
     1
290
     0
176
     1
 90
       50
176
     1
 40
0.0
176
     1
 40
1.0
176
     1
 90
        0
176
     1
 62
    18
420
        0
176
     1
 90
       50
176
     1
 90
        3
176
     1
 62
     5
420
      255
176
     1
290
     0
176
     1
 90
       50
176
     1
 90
       50
176
     1
 90
       50
176
     1
290
     0
176
     1
 90
       50
176
     1
 62
   256
176
     0
 40
1.0
176
     0
 90
        2
176
     1
  1
strokes_ogs.tif
176
     1
290
     0
176
     1
 40
1.0
176
     1
 40
1.0
176
     1
  0
VISUALSTYLE
  5
516
102
{ACAD_REACTORS
330
515
102
}
330
515
100
AcDbVisualStyle
  2
Flat
 70
     0
177
     3
291
     1
 70
    58
 90
        2
176
     1
 90
        1
176
     1
 90
        1
176
     1
 90
        2
176
     1
 40
0.6
176
     1
 40
30.0
176
     1
 62
     7
420
 16777215
176
     1
 90
        0
176
     1
 90
        0
176
     1
 62
     7
176
     1
 62
   257
176
     1
 90
        1
176
     1
 90
        1
176
     1
 40
1.0
176
     1
 90
        8
176
     1
 62
     7
176
     1
 40
1.0
176
     1
 90
        1
176
     1
 90
        6
176
     1
 90
        2
176
     1
 62
     7
176
     1
 90
        5
176
     1
 90
        0
176
     1
 90
        0
176
     1
290
     0
176
     1
 90
       13
176
     1
 40
0.0
176
     1
 90
        0
176
     1
290
     0
176
     1
290
     1
176
     1
290
     1
176
     1
290
     0
176
     1
290
     0
176
     1
290
     0
176
     1
290
     0
176
     1
290
     0
176
     1
290
     0
176
     1
 90
       50
176
     1
 40
0.0
176
     1
 40
1.0
176
     1
 90
        0
176
     1
 62
    18
420
        0
176
     1
 90
       50
176
     1
 90
        3
176
     1
 62
     5
420
      255
176
     1
290
     0
176
     1
 90
       50
176
     1
 90
       50
176
     1
 90
       50
176
     1
290
     0
176
     1
 90
       50
176
     1
 62
   256
176
     0
 40
1.0
176
     0
 90
        2
176
     1
  1
strokes_ogs.tif
176
     1
290
     0
176
     1
 40
1.0
176
     1
 40
1.0
176
     1
  0
VISUALSTYLE
  5
517
102
{ACAD_REACTORS
330
515
102
}
330
515
100
AcDbVisualStyle
  2
FlatWithEdges
 70
     1
177
     3
291
     1
 70
    58
 90
        2
176
     1
 90
        1
176
     1
 90
        1
176
     1
 90
        2
176
     1
 40
0.6
176
     1
 40
30.0
176
     1
 62
     7
420
 16777215
176
     1
 90
        1
176
     1
 90
        0
176
     1
 62
     7
176
     1
 62
   257
176
     1
 90
        1
176
     1
 90
        1
176
     1
 40
1.0
176
     1
 90
        0
176
     1
 62
   257
176
     1
 40
1.0
176
     1
 90
        1
176
     1
 90
        6
176
     1
 90
        2
176
     1
 62
     7
176
     1
 90
        5
176
     1
 90
        0
176
     1
 90
        0
176
     1
290
     0
176
     1
 90
       13
176
     1
 40
0.0
176
     1
 90
        0
176
     1
290
     0
176
     1
290
     1
176
     1
290
     1
176
     1
290
     0
176
     1
290
     0
176
     1
290
     0
176
     1
290
     0
176
     1
290
     0
176
     1
290
     0
176
     1
 90
       50
176
     1
 40
0.0
176
     1
 40
1.0
176
     1
 90
        0
176
     1
 62
    18
420
        0
176
     1
 90
       50
176
     1
 90
        3
176
     1
 62
     5
420
      255
176
     1
290
     0
176
     1
 90
       50
176
     1
 90
       50
176
     1
 90
       50
176
     1
290
     0
176
     1
 90
       50
176
     1
 62
   256
176
     0
 40
1.0
176
     0
 90
        2
176
     1
  1
strokes_ogs.tif
176
     1
290
     0
176
     1
 40
1.0
176
     1
 40
1.0
176
     1
  0
VISUALSTYLE
  5
518
102
{ACAD_REACTORS
330
515
102
}
330
515
100
AcDbVisualStyle
  2
Gouraud
 70
     2
177
     3
291
     1
 70
    58
 90
        2
176
     1
 90
        2
176
     1
 90
        1
176
     1
 90
        2
176
     1
 40
0.6
176
     1
 40
30.0
176
     1
 62
     7
420
 16777215
176
     1
 90
        0
176
     1
 90
        0
176
     1
 62
     7
176
     1
 62
   257
176
     1
 90
        1
176
     1
 90
        1
176
     1
 40
1.0
176
     1
 90
        0
176
     1
 62
     7
176
     1
 40
1.0
176
     1
 90
        1
176
     1
 90
        6
176
     1
 90
        2
176
     1
 62
     7
176
     1
 90
        5
176
     1
 90
        0
176
     1
 90
        0
176
     1
290
     0
176
     1
 90
       13
176
     1
 40
0.0
176
     1
 90
        0
176
     1
290
     0
176
     1
290
     1
176
     1
290
     1
176
     1
290
     0
176
     1
290
     0
176
     1
290
     0
176
     1
290
     0
176
     1
290
     0
176
     1
290
     0
176
     1
 90
       50
176
     1
 40
0.0
176
     1
 40
1.0
176
     1
 90
        0
176
     1
 62
    18
420
        0
176
     1
 90
       50
176
     1
 90
        3
176
     1
 62
     5
420
      255
176
     1
290
     0
176
     1
 90
       50
176
     1
 90
       50
176
     1
 90
       50
176
     1
290
     0
176
     1
 90
       50
176
     1
 62
   256
176
     0
 40
1.0
176
     0
 90
        2
176
     1
  1
strokes_ogs.tif
176
     1
290
     0
176
     1
 40
1.0
176
     1
 40
1.0
176
     1
  0
VISUALSTYLE
  5
519
102
{ACAD_REACTORS
330
515
102
}
330
515
100
AcDbVisualStyle
  2
GouraudWithEdges
 70
     3
177
     3
291
     1
 70
    58
 90
        2
176
     1
 90
        2
176
     1
 90
        1
176
     1
 90
        2
176
     1
 40
0.6
176
     1
 40
30.0
176
     1
 62
     7
420
 16777215
176
     1
 90
        1
176
     1
 90
        0
176
     1
 62
     7
176
     1
 62
   257
176
     1
 90
        1
176
     1
 90
        1
176
     1
 40
1.0
176
     1
 90
        0
176
     1
 62
   257
176
     1
 40
1.0
176
     1
 90
        1
176
     1
 90
        6
176
     1
 90
        2
176
     1
 62
     7
176
     1
 90
        5
176
     1
 90
        0
176
     1
 90
        0
176
     1
290
     0
176
     1
 90
       13
176
     1
 40
0.0
176
     1
 90
        0
176
     1
290
     0
176
     1
290
     1
176
     1
290
     1
176
     1
290
     0
176
     1
290
     0
176
     1
290
     0
176
     1
290
     0
176
     1
290
     0
176
     1
290
     0
176
     1
 90
       50
176
     1
 40
0.0
176
     1
 40
1.0
176
     1
 90
        0
176
     1
 62
    18
420
        0
176
     1
 90
       50
176
     1
 90
        3
176
     1
 62
     5
420
      255
176
     1
290
     0
176
     1
 90
       50
176
     1
 90
       50
176
     1
 90
       50
176
     1
290
     0
176
     1
 90
       50
176
     1
 62
   256
176
     0
 40
1.0
176
     0
 90
        2
176
     1
  1
strokes_ogs.tif
176
     1
290
     0
176
     1
 40
1.0
176
     1
 40
1.0
176
     1
  0
VISUALSTYLE
  5
51D
102
{ACAD_REACTORS
330
515
102
}
330
515
100
AcDbVisualStyle
  2
Hidden
 70
     6
177
     3
291
     0
 70
    58
 90
        1
176
     1
 90
        2
176
     1
 90
        2
176
     1
 90
        0
176
     1
 40
0.6
176
     1
 40
30.0
176
     1
 62
     7
420
 16777215
176
     1
 90
        2
176
     1
 90
        2
176
     1
 62
     7
176
     1
 62
   257
176
     1
 90
        2
176
     1
 90
        1
176
     1
 40
40.0
176
     1
 90
        0
176
     1
 62
   257
176
     1
 40
1.0
176
     1
 90
        1
176
     1
 90
        6
176
     1
 90
        2
176
     1
 62
     7
176
     1
 90
        3
176
     1
 90
        0
176
     1
 90
        0
176
     1
290
     0
176
     1
 90
        1
176
     1
 40
0.0
176
     1
 90
        0
176
     1
290
     0
176
     1
290
     1
176
     1
290
     1
176
     1
290
     0
176
     1
290
     0
176
     1
290
     0
176
     1
290
     0
176
     1
290
     0
176
     1
290
     0
176
     1
 90
       50
176
     1
 40
0.0
176
     1
 40
1.0
176
     1
 90
        0
176
     1
 62
    18
420
        0
176
     1
 90
       50
176
     1
 90
        3
176
     1
 62
     5
420
      255
176
     1
290
     0
176
     1
 90
       50
176
     1
 90
       50
176
     1
 90
       50
176
     1
290
     0
176
     1
 90
       50
176
     1
 62
   256
176
     0
 40
1.0
176
     0
 90
        2
176
     1
  1
strokes_ogs.tif
176
     1
290
     0
176
     1
 40
1.0
176
     1
 40
1.0
176
     1
  0
VISUALSTYLE
  5
52B
102
{ACAD_REACTORS
330
515
102
}
330
515
100
AcDbVisualStyle
  2
JitterOff
 70
    20
177
     3
291
     1
 70
    58
 90
        2
176
     0
 90
        2
176
     0
 90
        0
176
     0
 90
        0
176
     0
 40
0.6
176
     0
 40
30.0
176
     0
 62
     7
420
 16777215
176
     0
 90
        1
176
     0
 90
        4
176
     0
 62
     7
176
     0
 62
   257
176
     0
 90
        1
176
     0
 90
        1
176
     0
 40
1.0
176
     0
 90
       10
176
     2
 62
     7
176
     0
 40
1.0
176
     0
 90
        1
176
     0
 90
        6
176
     0
 90
        2
176
     0
 62
     7
176
     0
 90
        5
176
     0
 90
        0
176
     0
 90
        0
176
     0
290
     0
176
     0
 90
        1
176
     0
 40
0.0
176
     0
 90
        0
176
     0
290
     0
176
     1
290
     1
176
     1
290
     1
176
     1
290
     0
176
     1
290
     0
176
     1
290
     0
176
     1
290
     0
176
     1
290
     0
176
     1
290
     0
176
     1
 90
       50
176
     0
 40
0.0
176
     0
 40
1.0
176
     0
 90
        0
176
     0
 62
    18
420
        0
176
     0
 90
       50
176
     0
 90
        3
176
     0
 62
     5
420
      255
176
     0
290
     0
176
     1
 90
       50
176
     0
 90
       50
176
     0
 90
       50
176
     0
290
     0
176
     1
 90
       50
176
     0
 62
   256
176
     0
 40
1.0
176
     0
 90
        2
176
     0
  1
strokes_ogs.tif
176
     0
290
     0
176
     1
 40
1.0
176
     0
 40
1.0
176
     0
  0
VISUALSTYLE
  5
523
102
{ACAD_REACTORS
330
515
102
}
330
515
100
AcDbVisualStyle
  2
Linepattern
 70
    14
177
     3
291
     1
 70
    58
 90
        2
176
     1
 90
        2
176
     1
 90
        0
176
     1
 90
        0
176
     1
 40
0.6
176
     1
 40
30.0
176
     1
 62
     7
420
 16777215
176
     1
 90
        1
176
     1
 90
        4
176
     1
 62
     7
176
     1
 62
   257
176
     1
 90
        7
176
     1
 90
        7
176
     1
 40
1.0
176
     1
 90
        8
176
     1
 62
     7
176
     1
 40
1.0
176
     1
 90
        1
176
     1
 90
        6
176
     1
 90
        2
176
     1
 62
     7
176
     1
 90
        5
176
     1
 90
        0
176
     1
 90
        0
176
     1
290
     0
176
     1
 90
        1
176
     1
 40
0.0
176
     1
 90
        0
176
     1
290
     0
176
     1
290
     1
176
     1
290
     1
176
     1
290
     0
176
     1
290
     0
176
     1
290
     0
176
     1
290
     0
176
     1
290
     0
176
     1
290
     0
176
     1
 90
       50
176
     1
 40
0.0
176
     1
 40
1.0
176
     1
 90
        0
176
     1
 62
    18
420
        0
176
     1
 90
       50
176
     1
 90
        3
176
     1
 62
     5
420
      255
176
     1
290
     0
176
     1
 90
       50
176
     1
 90
       50
176
     1
 90
       50
176
     1
290
     0
176
     1
 90
       50
176
     1
 62
   256
176
     0
 40
1.0
176
     0
 90
        2
176
     1
  1
strokes_ogs.tif
176
     1
290
     0
176
     1
 40
1.0
176
     1
 40
1.0
176
     1
  0
VISUALSTYLE
  5
52C
102
{ACAD_REACTORS
330
515
102
}
330
515
100
AcDbVisualStyle
  2
OverhangOff
 70
    21
177
     3
291
     1
 70
    58
 90
        2
176
     0
 90
        2
176
     0
 90
        0
176
     0
 90
        0
176
     0
 40
0.6
176
     0
 40
30.0
176
     0
 62
     7
420
 16777215
176
     0
 90
        1
176
     0
 90
        4
176
     0
 62
     7
176
     0
 62
   257
176
     0
 90
        1
176
     0
 90
        1
176
     0
 40
1.0
176
     0
 90
        9
176
     2
 62
     7
176
     0
 40
1.0
176
     0
 90
        1
176
     0
 90
        6
176
     0
 90
        2
176
     0
 62
     7
176
     0
 90
        5
176
     0
 90
        0
176
     0
 90
        0
176
     0
290
     0
176
     0
 90
        1
176
     0
 40
0.0
176
     0
 90
        0
176
     0
290
     0
176
     1
290
     1
176
     1
290
     1
176
     1
290
     0
176
     1
290
     0
176
     1
290
     0
176
     1
290
     0
176
     1
290
     0
176
     1
290
     0
176
     1
 90
       50
176
     0
 40
0.0
176
     0
 40
1.0
176
     0
 90
        0
176
     0
 62
    18
420
        0
176
     0
 90
       50
176
     0
 90
        3
176
     0
 62
     5
420
      255
176
     0
290
     0
176
     1
 90
       50
176
     0
 90
       50
176
     0
 90
       50
176
     0
290
     0
176
     1
 90
       50
176
     0
 62
   256
176
     0
 40
1.0
176
     0
 90
        2
176
     0
  1
strokes_ogs.tif
176
     0
290
     0
176
     1
 40
1.0
176
     0
 40
1.0
176
     0
  0
VISUALSTYLE
  5
51F
102
{ACAD_REACTORS
330
515
102
}
330
515
100
AcDbVisualStyle
  2
Realistic
 70
     8
177
     3
291
     0
 70
    58
 90
        2
176
     1
 90
        3
176
     1
 90
        0
176
     1
 90
        2
176
     1
 40
0.6
176
     1
 40
30.0
176
     1
 62
     7
420
 16777215
176
     1
 90
        0
176
     1
 90
        0
176
     1
 62
     7
176
     1
 62
   257
176
     1
 90
        1
176
     1
 90
        1
176
     1
 40
1.0
176
     1
 90
        8
176
     1
 62
   257
176
     1
 40
1.0
176
     1
 90
        1
176
     1
 90
        6
176
     1
 90
        2
176
     1
 62
     7
176
     1
 90
        3
176
     1
 90
        0
176
     1
 90
        0
176
     1
290
     0
176
     1
 90
       13
176
     1
 40
0.0
176
     1
 90
        0
176
     1
290
     0
176
     1
290
     1
176
     1
290
     1
176
     1
290
     0
176
     1
290
     0
176
     1
290
     0
176
     1
290
     0
176
     1
290
     0
176
     1
290
     0
176
     1
 90
       50
176
     1
 40
0.0
176
     1
 40
1.0
176
     1
 90
        0
176
     1
 62
    18
420
        0
176
     1
 90
       50
176
     1
 90
        3
176
     1
 62
     5
420
      255
176
     1
290
     0
176
     1
 90
       50
176
     1
 90
       50
176
     1
 90
       50
176
     1
290
     0
176
     1
 90
       50
176
     1
 62
   256
176
     0
 40
1.0
176
     0
 90
        2
176
     1
  1
strokes_ogs.tif
176
     1
290
     0
176
     1
 40
1.0
176
     1
 40
1.0
176
     1
  0
VISUALSTYLE
  5
52A
102
{ACAD_REACTORS
330
515
102
}
330
515
100
AcDbVisualStyle
  2
Shaded
 70
    27
177
     3
291
     0
 70
    58
 90
        2
176
     1
 90
        2
176
     1
 90
        1
176
     1
 90
        2
176
     1
 40
0.6
176
     1
 40
30.0
176
     1
 62
     7
420
 16777215
176
     1
 90
        0
176
     1
 90
        4
176
     1
 62
     7
176
     1
 62
   257
176
     1
 90
        1
176
     1
 90
        1
176
     1
 40
1.0
176
     1
 90
        8
176
     1
 62
   257
176
     1
 40
1.0
176
     1
 90
        1
176
     1
 90
        6
176
     1
 90
        2
176
     1
 62
     8
420
  7895160
176
     1
 90
        3
176
     1
 90
        0
176
     1
 90
        0
176
     1
290
     0
176
     1
 90
        5
176
     1
 40
0.0
176
     1
 90
        0
176
     1
290
     0
176
     1
290
     1
176
     1
290
     1
176
     1
290
     0
176
     1
290
     0
176
     1
290
     0
176
     1
290
     0
176
     1
290
     0
176
     1
290
     0
176
     1
 90
       50
176
     1
 40
0.0
176
     1
 40
1.0
176
     1
 90
        0
176
     1
 62
    18
420
        0
176
     1
 90
       50
176
     1
 90
        3
176
     1
 62
     5
420
      255
176
     1
290
     0
176
     1
 90
       50
176
     1
 90
       50
176
     1
 90
       50
176
     1
290
     0
176
     1
 90
       50
176
     1
 62
   256
176
     0
 40
1.0
176
     0
 90
        2
176
     1
  1
strokes_ogs.tif
176
     1
290
     0
176
     1
 40
1.0
176
     1
 40
1.0
176
     1
  0
VISUALSTYLE
  5
529
102
{ACAD_REACTORS
330
515
102
}
330
515
100
AcDbVisualStyle
  2
Shaded with edges
 70
    26
177
     3
291
     0
 70
    58
 90
        2
176
     1
 90
        2
176
     1
 90
        1
176
     1
 90
        2
176
     1
 40
0.6
176
     1
 40
30.0
176
     1
 62
     7
420
 16777215
176
     1
 90
        1
176
     1
 90
       10
176
     1
 62
     7
176
     1
 62
   257
176
     1
 90
        2
176
     1
 90
        1
176
     1
 40
1.0
176
     1
 90
        8
176
     1
 62
   257
176
     1
 40
1.0
176
     1
 90
        1
176
     1
 90
        6
176
     1
 90
        2
176
     1
 62
     7
176
     1
 90
        3
176
     1
 90
        0
176
     1
 90
        0
176
     1
290
     0
176
     1
 90
        5
176
     1
 40
0.0
176
     1
 90
        0
176
     1
290
     0
176
     1
290
     1
176
     1
290
     1
176
     1
290
     0
176
     1
290
     0
176
     1
290
     0
176
     1
290
     0
176
     1
290
     0
176
     1
290
     0
176
     1
 90
       50
176
     1
 40
0.0
176
     1
 40
1.0
176
     1
 90
        0
176
     1
 62
    18
420
        0
176
     1
 90
       50
176
     1
 90
        3
176
     1
 62
     5
420
      255
176
     1
290
     0
176
     1
 90
       50
176
     1
 90
       50
176
     1
 90
       50
176
     1
290
     0
176
     1
 90
       50
176
     1
 62
   256
176
     0
 40
1.0
176
     0
 90
        2
176
     1
  1
strokes_ogs.tif
176
     1
290
     0
176
     1
 40
1.0
176
     1
 40
1.0
176
     1
  0
VISUALSTYLE
  5
526
102
{ACAD_REACTORS
330
515
102
}
330
515
100
AcDbVisualStyle
  2
Shades of Gray
 70
    23
177
     3
291
     0
 70
    58
 90
        2
176
     1
 90
        2
176
     1
 90
        3
176
     1
 90
        0
176
     1
 40
0.6
176
     1
 40
30.0
176
     1
 62
     7
420
 16777215
176
     1
 90
        2
176
     1
 90
        2
176
     1
 62
     7
176
     1
 62
     7
176
     1
 90
        1
176
     1
 90
        1
176
     1
 40
40.0
176
     1
 90
        8
176
     1
 62
     7
176
     1
 40
1.0
176
     1
 90
        1
176
     1
 90
        6
176
     1
 90
        2
176
     1
 62
     7
176
     1
 90
        3
176
     1
 90
        0
176
     1
 90
        0
176
     1
290
     0
176
     1
 90
        1
176
     1
 40
0.0
176
     1
 90
        0
176
     1
290
     0
176
     1
290
     1
176
     1
290
     1
176
     1
290
     0
176
     1
290
     0
176
     1
290
     0
176
     1
290
     0
176
     1
290
     0
176
     1
290
     0
176
     1
 90
       50
176
     1
 40
0.0
176
     1
 40
1.0
176
     1
 90
        0
176
     1
 62
    18
420
        0
176
     1
 90
       50
176
     1
 90
        3
176
     1
 62
     5
420
      255
176
     1
290
     0
176
     1
 90
       50
176
     1
 90
       50
176
     1
 90
       50
176
     1
290
     0
176
     1
 90
       50
176
     1
 62
   256
176
     0
 40
1.0
176
     0
 90
        2
176
     1
  1
strokes_ogs.tif
176
     1
290
     0
176
     1
 40
1.0
176
     1
 40
1.0
176
     1
  0
VISUALSTYLE
  5
527
102
{ACAD_REACTORS
330
515
102
}
330
515
100
AcDbVisualStyle
  2
Sketchy
 70
    24
177
     3
291
     0
 70
    58
 90
        1
176
     1
 90
        2
176
     1
 90
        2
176
     1
 90
        0
176
     1
 40
0.6
176
     1
 40
30.0
176
     1
 62
     7
420
 16777215
176
     1
 90
        2
176
     1
 90
        2
176
     1
 62
     7
176
     1
 62
     7
176
     1
 90
        1
176
     1
 90
        1
176
     1
 40
40.0
176
     1
 90
       11
176
     1
 62
     7
176
     1
 40
1.0
176
     1
 90
        1
176
     1
 90
        6
176
     1
 90
        2
176
     1
 62
     7
176
     1
 90
        6
176
     1
 90
        0
176
     1
 90
        0
176
     1
290
     0
176
     1
 90
        1
176
     1
 40
0.0
176
     1
 90
        0
176
     1
290
     0
176
     1
290
     1
176
     1
290
     1
176
     1
290
     0
176
     1
290
     0
176
     1
290
     0
176
     1
290
     0
176
     1
290
     0
176
     1
290
     0
176
     1
 90
       50
176
     1
 40
0.0
176
     1
 40
1.0
176
     1
 90
        0
176
     1
 62
    18
420
        0
176
     1
 90
       50
176
     1
 90
        3
176
     1
 62
     5
420
      255
176
     1
290
     0
176
     1
 90
       50
176
     1
 90
       50
176
     1
 90
       50
176
     1
290
     0
176
     1
 90
       50
176
     1
 62
   256
176
     0
 40
1.0
176
     0
 90
        2
176
     1
  1
strokes_ogs.tif
176
     1
290
     0
176
     1
 40
1.0
176
     1
 40
1.0
176
     1
  0
VISUALSTYLE
  5
522
102
{ACAD_REACTORS
330
515
102
}
330
515
100
AcDbVisualStyle
  2
Thicken
 70
    13
177
     3
291
     1
 70
    58
 90
        2
176
     1
 90
        2
176
     1
 90
        0
176
     1
 90
        0
176
     1
 40
0.6
176
     1
 40
30.0
176
     1
 62
     7
420
 16777215
176
     1
 90
        1
176
     1
 90
        4
176
     1
 62
     7
176
     1
 62
   257
176
     1
 90
        1
176
     1
 90
        1
176
     1
 40
1.0
176
     1
 90
       12
176
     1
 62
     7
176
     1
 40
1.0
176
     1
 90
        1
176
     1
 90
        6
176
     1
 90
        2
176
     1
 62
     7
176
     1
 90
        5
176
     1
 90
        0
176
     1
 90
        0
176
     1
290
     0
176
     1
 90
        1
176
     1
 40
0.0
176
     1
 90
        0
176
     1
290
     0
176
     1
290
     1
176
     1
290
     1
176
     1
290
     0
176
     1
290
     0
176
     1
290
     0
176
     1
290
     0
176
     1
290
     0
176
     1
290
     0
176
     1
 90
       50
176
     1
 40
0.0
176
     1
 40
1.0
176
     1
 90
        0
176
     1
 62
    18
420
        0
176
     1
 90
       50
176
     1
 90
        3
176
     1
 62
     5
420
      255
176
     1
290
     0
176
     1
 90
       50
176
     1
 90
       50
176
     1
 90
       50
176
     1
290
     0
176
     1
 90
       50
176
     1
 62
   256
176
     0
 40
1.0
176
     0
 90
        2
176
     1
  1
strokes_ogs.tif
176
     1
290
     0
176
     1
 40
1.0
176
     1
 40
1.0
176
     1
  0
VISUALSTYLE
  5
51C
102
{ACAD_REACTORS
330
515
102
}
330
515
100
AcDbVisualStyle
  2
Wireframe
 70
     5
177
     3
291
     0
 70
    58
 90
        0
176
     1
 90
        2
176
     1
 90
        0
176
     1
 90
        0
176
     1
 40
0.6
176
     1
 40
30.0
176
     1
 62
     7
420
 16777215
176
     1
 90
        1
176
     1
 90
        4
176
     1
 62
     7
176
     1
 62
   257
176
     1
 90
        1
176
     1
 90
        1
176
     1
 40
1.0
176
     1
 90
        0
176
     1
 62
   257
176
     1
 40
1.0
176
     1
 90
        1
176
     1
 90
        6
176
     1
 90
        2
176
     1
 62
     7
176
     1
 90
        3
176
     1
 90
        0
176
     1
 90
        0
176
     1
290
     0
176
     1
 90
        1
176
     1
 40
0.0
176
     1
 90
        0
176
     1
290
     0
176
     1
290
     1
176
     1
290
     1
176
     1
290
     0
176
     1
290
     0
176
     1
290
     0
176
     1
290
     0
176
     1
290
     0
176
     1
290
     0
176
     1
 90
       50
176
     1
 40
0.0
176
     1
 40
1.0
176
     1
 90
        0
176
     1
 62
    18
420
        0
176
     1
 90
       50
176
     1
 90
        3
176
     1
 62
     5
420
      255
176
     1
290
     0
176
     1
 90
       50
176
     1
 90
       50
176
     1
 90
       50
176
     1
290
     0
176
     1
 90
       50
176
     1
 62
   256
176
     0
 40
1.0
176
     0
 90
        2
176
     1
  1
strokes_ogs.tif
176
     1
290
     0
176
     1
 40
1.0
176
     1
 40
1.0
176
     1
  0
VISUALSTYLE
  5
528
102
{ACAD_REACTORS
330
515
102
}
330
515
100
AcDbVisualStyle
  2
X-Ray
 70
    25
177
     3
291
     0
 70
    58
 90
        2
176
     1
 90
        2
176
     1
 90
        1
176
     1
 90
        1
176
     1
 40
0.5
176
     1
 40
30.0
176
     1
 62
     7
420
 16777215
176
     1
 90
        1
176
     1
 90
        0
176
     1
 62
     7
176
     1
 62
   257
176
     1
 90
        1
176
     1
 90
        1
176
     1
 40
1.0
176
     1
 90
        8
176
     1
 62
     7
176
     1
 40
1.0
176
     1
 90
        1
176
     1
 90
        6
176
     1
 90
        2
176
     1
 62
     7
176
     1
 90
        3
176
     1
 90
        0
176
     1
 90
        0
176
     1
290
     0
176
     1
 90
       13
176
     1
 40
0.0
176
     1
 90
        0
176
     1
290
     0
176
     1
290
     1
176
     1
290
     1
176
     1
290
     0
176
     1
290
     0
176
     1
290
     0
176
     1
290
     0
176
     1
290
     0
176
     1
290
     0
176
     1
 90
       50
176
     1
 40
0.0
176
     1
 40
1.0
176
     1
 90
        0
176
     1
 62
    18
420
        0
176
     1
 90
       50
176
     1
 90
        3
176
     1
 62
     5
420
      255
176
     1
290
     0
176
     1
 90
       50
176
     1
 90
       50
176
     1
 90
       50
176
     1
290
     0
176
     1
 90
       50
176
     1
 62
   256
176
     0
 40
1.0
176
     0
 90
        2
176
     1
  1
strokes_ogs.tif
176
     1
290
     0
176
     1
 40
1.0
176
     1
 40
1.0
176
     1
  0
DICTIONARYVAR
  5
58E
102
{ACAD_REACTORS
330
588
102
}
330
588
100
DictionaryVariables
280
     0
  1
1:1
  0
DICTIONARYVAR
  5
58A
102
{ACAD_REACTORS
330
588
102
}
330
588
100
DictionaryVariables
280
     0
  1
STANDARD
  0
DICTIONARYVAR
  5
589
102
{ACAD_REACTORS
330
588
102
}
330
588
100
DictionaryVariables
280
     0
  1
STANDARD
  0
DICTIONARYVAR
  5
58B
102
{ACAD_REACTORS
330
588
102
}
330
588
100
DictionaryVariables
280
     0
  1
Imperial24
  0
DICTIONARYVAR
  5
58C
102
{ACAD_REACTORS
330
588
102
}
330
588
100
DictionaryVariables
280
     0
  1
Imperial24
  0
DICTIONARYVAR
  5
590
102
{ACAD_REACTORS
330
588
102
}
330
588
100
DictionaryVariables
280
     0
  1
1
  0
DICTIONARYVAR
  5
591
102
{ACAD_REACTORS
330
588
102
}
330
588
100
DictionaryVariables
280
     0
  1
15
  0
DICTIONARYVAR
  5
58F
102
{ACAD_REACTORS
330
588
102
}
330
588
100
DictionaryVariables
280
     0
  1
0
  0
DICTIONARYVAR
  5
58D
102
{ACAD_REACTORS
330
588
102
}
330
588
100
DictionaryVariables
280
     0
  1
0
  0
DICTIONARY
  5
597
330
548
100
AcDbDictionary
280
     1
281
     1
  3
ACAD_XREC_ROUNDTRIP
360
598
  0
DICTIONARY
  5
506
330
505
100
AcDbDictionary
280
     1
281
     1
  3
BUMPTILE
360
508
  3
DIFFUSETILE
360
507
  3
OPACITYTILE
360
50B
  3
REFLECTIONTILE
360
50A
  3
REFRACTIONTILE
360
50C
  3
SPECULARTILE
360
509
  0
DICTIONARY
  5
4FE
330
4FD
100
AcDbDictionary
280
     1
281
     1
  3
BUMPTILE
360
500
  3
DIFFUSETILE
360
4FF
  3
OPACITYTILE
360
503
  3
REFLECTIONTILE
360
502
  3
REFRACTIONTILE
360
504
  3
SPECULARTILE
360
501
  0
DICTIONARY
  5
50E
330
50D
100
AcDbDictionary
280
     1
281
     1
  3
BUMPTILE
360
510
  3
DIFFUSETILE
360
50F
  3
OPACITYTILE
360
513
  3
REFLECTIONTILE
360
512
  3
REFRACTIONTILE
360
514
  3
SPECULARTILE
360
511
  0
DICTIONARY
  5
595
330
546
100
AcDbDictionary
280
     1
281
     1
  3
ACAD_XREC_ROUNDTRIP
360
596
  0
DICTIONARY
  5
593
330
530
100
AcDbDictionary
280
     1
281
     1
  3
ACAD_ROUNDTRIP_2008_TABLESTYLE_CELLSTYLEMAP
360
594
  0
XRECORD
  5
598
102
{ACAD_REACTORS
330
597
102
}
330
597
100
AcDbXrecord
280
     1
102
DISPLAYNAME
  1
Imperial24
102
FLAGS
 90
        0
  0
XRECORD
  5
508
102
{ACAD_REACTORS
330
506
102
}
330
506
100
AcDbXrecord
280
     1
270
     1
271
     1
  0
XRECORD
  5
507
102
{ACAD_REACTORS
330
506
102
}
330
506
100
AcDbXrecord
280
     1
270
     1
271
     1
  0
XRECORD
  5
50B
102
{ACAD_REACTORS
330
506
102
}
330
506
100
AcDbXrecord
280
     1
270
     1
271
     1
  0
XRECORD
  5
50A
102
{ACAD_REACTORS
330
506
102
}
330
506
100
AcDbXrecord
280
     1
270
     1
271
     1
  0
XRECORD
  5
50C
102
{ACAD_REACTORS
330
506
102
}
330
506
100
AcDbXrecord
280
     1
270
     1
271
     1
  0
XRECORD
  5
509
102
{ACAD_REACTORS
330
506
102
}
330
506
100
AcDbXrecord
280
     1
270
     1
271
     1
  0
XRECORD
  5
500
102
{ACAD_REACTORS
330
4FE
102
}
330
4FE
100
AcDbXrecord
280
     1
270
     1
271
     1
  0
XRECORD
  5
4FF
102
{ACAD_REACTORS
330
4FE
102
}
330
4FE
100
AcDbXrecord
280
     1
270
     1
271
     1
  0
XRECORD
  5
503
102
{ACAD_REACTORS
330
4FE
102
}
330
4FE
100
AcDbXrecord
280
     1
270
     1
271
     1
  0
XRECORD
  5
502
102
{ACAD_REACTORS
330
4FE
102
}
330
4FE
100
AcDbXrecord
280
     1
270
     1
271
     1
  0
XRECORD
  5
504
102
{ACAD_REACTORS
330
4FE
102
}
330
4FE
100
AcDbXrecord
280
     1
270
     1
271
     1
  0
XRECORD
  5
501
102
{ACAD_REACTORS
330
4FE
102
}
330
4FE
100
AcDbXrecord
280
     1
270
     1
271
     1
  0
XRECORD
  5
510
102
{ACAD_REACTORS
330
50E
102
}
330
50E
100
AcDbXrecord
280
     1
270
     1
271
     1
  0
XRECORD
  5
50F
102
{ACAD_REACTORS
330
50E
102
}
330
50E
100
AcDbXrecord
280
     1
270
     1
271
     1
  0
XRECORD
  5
513
102
{ACAD_REACTORS
330
50E
102
}
330
50E
100
AcDbXrecord
280
     1
270
     1
271
     1
  0
XRECORD
  5
512
102
{ACAD_REACTORS
330
50E
102
}
330
50E
100
AcDbXrecord
280
     1
270
     1
271
     1
  0
XRECORD
  5
514
102
{ACAD_REACTORS
330
50E
102
}
330
50E
100
AcDbXrecord
280
     1
270
     1
271
     1
  0
XRECORD
  5
511
102
{ACAD_REACTORS
330
50E
102
}
330
50E
100
AcDbXrecord
280
     1
270
     1
271
     1
  0
XRECORD
  5
596
102
{ACAD_REACTORS
330
595
102
}
330
595
100
AcDbXrecord
280
     1
102
DISPLAYNAME
  1
Imperial24
102
FLAGS
 90
        0
  0
CELLSTYLEMAP
  5
594
102
{ACAD_REACTORS
330
593
102
}
330
593
100
AcDbCellStyleMap
 90
        3
300
CELLSTYLE
  1
TABLEFORMAT_BEGIN
 90
        5
170
     1
 91
        0
 92
    32768
 62
   257
 93
        1
300
CONTENTFORMAT
  1
CONTENTFORMAT_BEGIN
 90
        0
 91
        0
 92
      512
 93
        0
300

 40
0.0
140
1.0
 94
        5
 62
     0
340
F
144
0.25
309
CONTENTFORMAT_END
171
     0
 94
        0
309
TABLEFORMAT_END
  1
CELLSTYLE_BEGIN
 90
        1
 91
        1
300
_TITLE
309
CELLSTYLE_END
300
CELLSTYLE
  1
TABLEFORMAT_BEGIN
 90
        5
170
     1
 91
        0
 92
        0
 62
   257
 93
        1
300
CONTENTFORMAT
  1
CONTENTFORMAT_BEGIN
 90
        0
 91
        0
 92
      512
 93
        0
300

 40
0.0
140
1.0
 94
        5
 62
     0
340
F
144
0.18
309
CONTENTFORMAT_END
171
     0
 94
        0
309
TABLEFORMAT_END
  1
CELLSTYLE_BEGIN
 90
        2
 91
        1
300
_HEADER
309
CELLSTYLE_END
300
CELLSTYLE
  1
TABLEFORMAT_BEGIN
 90
        5
170
     1
 91
        0
 92
        0
 62
   257
 93
        1
300
CONTENTFORMAT
  1
CONTENTFORMAT_BEGIN
 90
        0
 91
        0
 92
      512
 93
        0
300

 40
0.0
140
1.0
 94
        2
 62
     0
340
F
144
0.18
309
CONTENTFORMAT_END
171
     0
 94
        0
309
TABLEFORMAT_END
  1
CELLSTYLE_BEGIN
 90
        3
 91
        2
300
_DATA
309
CELLSTYLE_END
  0
ENDSEC
  0
EOF
