  0
SECTION
  2
HEADER
  9
$ACADVER
  1
AC1014
  9
$ACADMAINTVER
 70
     0
  9
$DWGCODEPAGE
  3
ANSI_1252
  9
$INSBASE
 10
0.0
 20
0.0
 30
0.0
  9
$EXTMIN
 10
-15.412819
 20
-5.261473
 30
0.0
  9
$EXTMAX
 10
9.461749
 20
10.38802
 30
0.0
  9
$LIMMIN
 10
0.0
 20
0.0
  9
$LIMMAX
 10
12.0
 20
9.0
  9
$ORTHOMODE
 70
     1
  9
$REGENMODE
 70
     1
  9
$FILLMODE
 70
     1
  9
$QTEXTMODE
 70
     0
  9
$MIRRTEXT
 70
     1
  9
$DRAGMODE
 70
     2
  9
$LTSCALE
 40
1.0
  9
$OSMODE
 70
   289
  9
$ATTMODE
 70
     1
  9
$TEXTSIZE
 40
0.2
  9
$TRACEWID
 40
0.05
  9
$TEXTSTYLE
  7
STANDARD
  9
$CLAYER
  8
HIDDEN_LINE
  9
$CELTYPE
  6
BYLAYER
  9
$CECOLOR
 62
   256
  9
$CELTSCALE
 40
1.0
  9
$DELOBJ
 70
     1
  9
$DISPSILH
 70
     0
  9
$DIMSCALE
 40
1.0
  9
$DIMASZ
 40
0.18
  9
$DIMEXO
 40
0.0625
  9
$DIMDLI
 40
0.38
  9
$DIMRND
 40
0.0
  9
$DIMDLE
 40
0.0
  9
$DIMEXE
 40
0.18
  9
$DIMTP
 40
0.0
  9
$DIMTM
 40
0.0
  9
$DIMTXT
 40
0.18
  9
$DIMCEN
 40
0.09
  9
$DIMTSZ
 40
0.0
  9
$DIMTOL
 70
     0
  9
$DIMLIM
 70
     0
  9
$DIMTIH
 70
     1
  9
$DIMTOH
 70
     1
  9
$DIMSE1
 70
     0
  9
$DIMSE2
 70
     0
  9
$DIMTAD
 70
     0
  9
$DIMZIN
 70
     4
  9
$DIMBLK
  1

  9
$DIMASO
 70
     1
  9
$DIMSHO
 70
     1
  9
$DIMPOST
  1

  9
$DIMAPOST
  1

  9
$DIMALT
 70
     0
  9
$DIMALTD
 70
     2
  9
$DIMALTF
 40
25.4
  9
$DIMLFAC
 40
1.0
  9
$DIMTOFL
 70
     0
  9
$DIMTVP
 40
0.0
  9
$DIMTIX
 70
     0
  9
$DIMSOXD
 70
     0
  9
$DIMSAH
 70
     0
  9
$DIMBLK1
  1

  9
$DIMBLK2
  1

  9
$DIMSTYLE
  2
STANDARD
  9
$DIMCLRD
 70
     0
  9
$DIMCLRE
 70
     0
  9
$DIMCLRT
 70
     0
  9
$DIMTFAC
 40
1.0
  9
$DIMGAP
 40
0.09
  9
$DIMJUST
 70
     0
  9
$DIMSD1
 70
     0
  9
$DIMSD2
 70
     0
  9
$DIMTOLJ
 70
     1
  9
$DIMTZIN
 70
     0
  9
$DIMALTZ
 70
     0
  9
$DIMALTTZ
 70
     0
  9
$DIMFIT
 70
     3
  9
$DIMUPT
 70
     0
  9
$DIMUNIT
 70
     2
  9
$DIMDEC
 70
     3
  9
$DIMTDEC
 70
     4
  9
$DIMALTU
 70
     2
  9
$DIMALTTD
 70
     2
  9
$DIMTXSTY
  7
STANDARD
  9
$DIMAUNIT
 70
     0
  9
$LUNITS
 70
     2
  9
$LUPREC
 70
     4
  9
$SKETCHINC
 40
0.1
  9
$FILLETRAD
 40
0.06
  9
$AUNITS
 70
     0
  9
$AUPREC
 70
     0
  9
$MENU
  1
acad
  9
$ELEVATION
 40
0.0
  9
$PELEVATION
 40
0.0
  9
$THICKNESS
 40
0.0
  9
$LIMCHECK
 70
     0
  9
$BLIPMODE
 70
     0
  9
$CHAMFERA
 40
0.06
  9
$CHAMFERB
 40
0.06
  9
$CHAMFERC
 40
1.0
  9
$CHAMFERD
 40
0.0
  9
$SKPOLY
 70
     0
  9
$TDCREATE
 40
2451975.672308912
  9
$TDUPDATE
 40
2452207.613555787
  9
$TDINDWG
 40
0.0957922454
  9
$TDUSRTIMER
 40
0.0957922454
  9
$USRTIMER
 70
     1
  9
$ANGBASE
 50
0.0
  9
$ANGDIR
 70
     0
  9
$PDMODE
 70
     0
  9
$PDSIZE
 40
0.0
  9
$PLINEWID
 40
0.0
  9
$COORDS
 70
     1
  9
$SPLFRAME
 70
     0
  9
$SPLINETYPE
 70
     6
  9
$SPLINESEGS
 70
     8
  9
$ATTDIA
 70
     0
  9
$ATTREQ
 70
     1
  9
$HANDLING
 70
     1
  9
$HANDSEED
  5
7FD
  9
$SURFTAB1
 70
     6
  9
$SURFTAB2
 70
     6
  9
$SURFTYPE
 70
     6
  9
$SURFU
 70
     6
  9
$SURFV
 70
     6
  9
$UCSNAME
  2

  9
$UCSORG
 10
0.0
 20
0.0
 30
0.0
  9
$UCSXDIR
 10
1.0
 20
0.0
 30
0.0
  9
$UCSYDIR
 10
0.0
 20
1.0
 30
0.0
  9
$PUCSNAME
  2

  9
$PUCSORG
 10
0.0
 20
0.0
 30
0.0
  9
$PUCSXDIR
 10
1.0
 20
0.0
 30
0.0
  9
$PUCSYDIR
 10
0.0
 20
1.0
 30
0.0
  9
$USERI1
 70
     0
  9
$USERI2
 70
     0
  9
$USERI3
 70
     0
  9
$USERI4
 70
     0
  9
$USERI5
 70
     0
  9
$USERR1
 40
0.0
  9
$USERR2
 40
0.0
  9
$USERR3
 40
0.0
  9
$USERR4
 40
0.0
  9
$USERR5
 40
0.0
  9
$WORLDVIEW
 70
     1
  9
$SHADEDGE
 70
     3
  9
$SHADEDIF
 70
    70
  9
$TILEMODE
 70
     1
  9
$MAXACTVP
 70
    48
  9
$PINSBASE
 10
0.0
 20
0.0
 30
0.0
  9
$PLIMCHECK
 70
     0
  9
$PEXTMIN
 10
1.000000E+20
 20
1.000000E+20
 30
1.000000E+20
  9
$PEXTMAX
 10
-1.000000E+20
 20
-1.000000E+20
 30
-1.000000E+20
  9
$PLIMMIN
 10
0.0
 20
0.0
  9
$PLIMMAX
 10
12.0
 20
9.0
  9
$UNITMODE
 70
     0
  9
$VISRETAIN
 70
     1
  9
$PLINEGEN
 70
     0
  9
$PSLTSCALE
 70
     1
  9
$TREEDEPTH
 70
  3020
  9
$PICKSTYLE
 70
     1
  9
$CMLSTYLE
  2
STANDARD
  9
$CMLJUST
 70
     0
  9
$CMLSCALE
 40
1.0
  9
$PROXYGRAPHICS
 70
     1
  9
$MEASUREMENT
 70
     0
  0
ENDSEC
  0
SECTION
  2
CLASSES
  0
CLASS
  1
LWPOLYLINE
  2
AcDbPolyline
  3
"AutoCAD"
 90
        0
280
     0
281
     1
  0
ENDSEC
  0
SECTION
  2
TABLES
  0
TABLE
  2
VPORT
  5
8
100
AcDbSymbolTable
 70
     1
  0
VPORT
  5
7F9
100
AcDbSymbolTableRecord
100
AcDbViewportTableRecord
  2
*ACTIVE
 70
     0
 10
0.0
 20
0.0
 11
1.0
 21
1.0
 12
4.125596
 22
2.606715
 13
0.0
 23
0.0
 14
0.5
 24
0.5
 15
0.5
 25
0.5
 16
0.0
 26
0.0
 36
1.0
 17
0.0
 27
0.0
 37
0.0
 40
18.963072
 41
2.151163
 42
50.0
 43
0.0
 44
0.0
 50
0.0
 51
0.0
 71
     0
 72
   100
 73
     1
 74
     1
 75
     0
 76
     0
 77
     0
 78
     0
  0
ENDTAB
  0
TABLE
  2
LTYPE
  5
5
100
AcDbSymbolTable
 70
     5
  0
LTYPE
  5
12
100
AcDbSymbolTableRecord
100
AcDbLinetypeTableRecord
  2
BYBLOCK
 70
     0
  3

 72
    65
 73
     0
 40
0.0
  0
LTYPE
  5
13
100
AcDbSymbolTableRecord
100
AcDbLinetypeTableRecord
  2
BYLAYER
 70
     0
  3

 72
    65
 73
     0
 40
0.0
  0
LTYPE
  5
14
100
AcDbSymbolTableRecord
100
AcDbLinetypeTableRecord
  2
CONTINUOUS
 70
     0
  3
Solid line
 72
    65
 73
     0
 40
0.0
  0
LTYPE
  5
D5
100
AcDbSymbolTableRecord
100
AcDbLinetypeTableRecord
  2
CENTER
 70
     0
  3
Center ____ _ ____ _ ____ _ ____ _ ____ _ ____
 72
    65
 73
     4
 40
2.0
 49
1.25
 74
     0
 49
-0.25
 74
     0
 49
0.25
 74
     0
 49
-0.25
 74
     0
  0
LTYPE
  5
D6
100
AcDbSymbolTableRecord
100
AcDbLinetypeTableRecord
  2
DASHED2
 70
     0
  3
Dashed (.5x) _ _ _ _ _ _ _ _ _ _ _ _ _ _ _ _ _
 72
    65
 73
     2
 40
0.375
 49
0.25
 74
     0
 49
-0.125
 74
     0
  0
LTYPE
  5
D7
100
AcDbSymbolTableRecord
100
AcDbLinetypeTableRecord
  2
DASHEDX2
 70
     0
  3
Dashed (2x) ____  ____  ____  ____  ____  ___
 72
    65
 73
     2
 40
1.5
 49
1.0
 74
     0
 49
-0.5
 74
     0
  0
LTYPE
  5
D8
100
AcDbSymbolTableRecord
100
AcDbLinetypeTableRecord
  2
HIDDEN2
 70
     0
  3
Hidden (.5x) _ _ _ _ _ _ _ _ _ _ _ _ _ _ _ _ _
 72
    65
 73
     2
 40
0.1875
 49
0.125
 74
     0
 49
-0.0625
 74
     0
  0
ENDTAB
  0
TABLE
  2
LAYER
  5
2
100
AcDbSymbolTable
 70
     6
  0
LAYER
  5
E
100
AcDbSymbolTableRecord
100
AcDbLayerTableRecord
  2
0
 70
     0
 62
     7
  6
CONTINUOUS
  0
LAYER
  5
D9
100
AcDbSymbolTableRecord
100
AcDbLayerTableRecord
  2
TB
 70
     0
 62
     7
  6
CONTINUOUS
  0
LAYER
  5
DA
100
AcDbSymbolTableRecord
100
AcDbLayerTableRecord
  2
CTR_LINES
 70
     0
 62
     1
  6
CENTER
  0
LAYER
  5
DB
100
AcDbSymbolTableRecord
100
AcDbLayerTableRecord
  2
DIMS_TEXT
 70
     0
 62
     3
  6
CONTINUOUS
  0
LAYER
  5
DC
100
AcDbSymbolTableRecord
100
AcDbLayerTableRecord
  2
DEFPOINTS
 70
     0
 62
     7
  6
CONTINUOUS
  0
LAYER
  5
DD
100
AcDbSymbolTableRecord
100
AcDbLayerTableRecord
  2
HIDDEN_LINE
 70
     0
 62
     4
  6
HIDDEN2
  0
ENDTAB
  0
TABLE
  2
STYLE
  5
3
100
AcDbSymbolTable
 70
     1
  0
STYLE
  5
F
100
AcDbSymbolTableRecord
100
AcDbTextStyleTableRecord
  2
STANDARD
 70
     0
 40
0.0
 41
1.0
 50
0.0
 71
     0
 42
0.2
  3
txt
  4

  0
ENDTAB
  0
TABLE
  2
VIEW
  5
6
100
AcDbSymbolTable
 70
     0
  0
ENDTAB
  0
TABLE
  2
UCS
  5
7
100
AcDbSymbolTable
 70
     0
  0
ENDTAB
  0
TABLE
  2
APPID
  5
9
100
AcDbSymbolTable
 70
     1
  0
APPID
  5
10
100
AcDbSymbolTableRecord
100
AcDbRegAppTableRecord
  2
ACAD
 70
     0
  0
ENDTAB
  0
TABLE
  2
DIMSTYLE
  5
A
100
AcDbSymbolTable
 70
     1
  0
DIMSTYLE
105
1D
102
{ACAD_REACTORS
330
215
330
216
330
21C
330
21D
330
228
330
279
330
27B
330
282
330
320
330
339
330
55A
330
5E0
330
5EE
330
61E
330
636
330
65C
330
69A
330
6BD
330
6F2
330
7B4
102
}
100
AcDbSymbolTableRecord
100
AcDbDimStyleTableRecord
  2
STANDARD
 70
     0
  3

  4

  5

  6

  7

 40
1.0
 41
0.18
 42
0.0625
 43
0.38
 44
0.18
 45
0.0
 46
0.0
 47
0.0
 48
0.0
140
0.18
141
0.09
142
0.0
143
25.4
144
1.0
145
0.0
146
1.0
147
0.09
 71
     0
 72
     0
 73
     1
 74
     1
 75
     0
 76
     0
 77
     0
 78
     0
170
     0
171
     2
172
     0
173
     0
174
     0
175
     0
176
     0
177
     0
178
     0
270
     2
271
     4
272
     4
273
     2
274
     2
340
F
275
     0
280
     0
281
     0
282
     0
283
     1
284
     0
285
     0
286
     0
287
     3
288
     0
  0
ENDTAB
  0
TABLE
  2
BLOCK_RECORD
  5
1
100
AcDbSymbolTable
 70
    36
  0
BLOCK_RECORD
  5
18
100
AcDbSymbolTableRecord
100
AcDbBlockTableRecord
  2
*MODEL_SPACE
  0
BLOCK_RECORD
  5
15
100
AcDbSymbolTableRecord
100
AcDbBlockTableRecord
  2
*PAPER_SPACE
  0
BLOCK_RECORD
  5
21
100
AcDbSymbolTableRecord
100
AcDbBlockTableRecord
  2
*D0
  0
BLOCK_RECORD
  5
2E
100
AcDbSymbolTableRecord
100
AcDbBlockTableRecord
  2
*D1
  0
BLOCK_RECORD
  5
3B
100
AcDbSymbolTableRecord
100
AcDbBlockTableRecord
  2
*D2
  0
BLOCK_RECORD
  5
48
100
AcDbSymbolTableRecord
100
AcDbBlockTableRecord
  2
*D3
  0
BLOCK_RECORD
  5
55
100
AcDbSymbolTableRecord
100
AcDbBlockTableRecord
  2
*D4
  0
BLOCK_RECORD
  5
62
100
AcDbSymbolTableRecord
100
AcDbBlockTableRecord
  2
*D5
  0
BLOCK_RECORD
  5
6F
100
AcDbSymbolTableRecord
100
AcDbBlockTableRecord
  2
*D6
  0
BLOCK_RECORD
  5
7C
100
AcDbSymbolTableRecord
100
AcDbBlockTableRecord
  2
*D7
  0
BLOCK_RECORD
  5
87
100
AcDbSymbolTableRecord
100
AcDbBlockTableRecord
  2
*D8
  0
BLOCK_RECORD
  5
94
100
AcDbSymbolTableRecord
100
AcDbBlockTableRecord
  2
*D9
  0
BLOCK_RECORD
  5
A1
100
AcDbSymbolTableRecord
100
AcDbBlockTableRecord
  2
*D10
  0
BLOCK_RECORD
  5
AE
100
AcDbSymbolTableRecord
100
AcDbBlockTableRecord
  2
*D11
  0
BLOCK_RECORD
  5
BB
100
AcDbSymbolTableRecord
100
AcDbBlockTableRecord
  2
*D12
  0
BLOCK_RECORD
  5
C8
100
AcDbSymbolTableRecord
100
AcDbBlockTableRecord
  2
*D13
  0
BLOCK_RECORD
  5
DE
100
AcDbSymbolTableRecord
100
AcDbBlockTableRecord
  2
BOB
  0
BLOCK_RECORD
  5
344
100
AcDbSymbolTableRecord
100
AcDbBlockTableRecord
  2
*D15
  0
BLOCK_RECORD
  5
351
100
AcDbSymbolTableRecord
100
AcDbBlockTableRecord
  2
*D16
  0
BLOCK_RECORD
  5
35E
100
AcDbSymbolTableRecord
100
AcDbBlockTableRecord
  2
*D17
  0
BLOCK_RECORD
  5
36B
100
AcDbSymbolTableRecord
100
AcDbBlockTableRecord
  2
*D18
  0
BLOCK_RECORD
  5
378
100
AcDbSymbolTableRecord
100
AcDbBlockTableRecord
  2
*D19
  0
BLOCK_RECORD
  5
3AC
100
AcDbSymbolTableRecord
100
AcDbBlockTableRecord
  2
*D20
  0
BLOCK_RECORD
  5
3C4
100
AcDbSymbolTableRecord
100
AcDbBlockTableRecord
  2
*D21
  0
BLOCK_RECORD
  5
3D1
100
AcDbSymbolTableRecord
100
AcDbBlockTableRecord
  2
*D22
  0
BLOCK_RECORD
  5
3DE
100
AcDbSymbolTableRecord
100
AcDbBlockTableRecord
  2
*D23
  0
BLOCK_RECORD
  5
3EB
100
AcDbSymbolTableRecord
100
AcDbBlockTableRecord
  2
*D24
  0
BLOCK_RECORD
  5
54D
100
AcDbSymbolTableRecord
100
AcDbBlockTableRecord
  2
*D25
  0
BLOCK_RECORD
  5
5D3
100
AcDbSymbolTableRecord
100
AcDbBlockTableRecord
  2
*D26
  0
BLOCK_RECORD
  5
5E1
100
AcDbSymbolTableRecord
100
AcDbBlockTableRecord
  2
*D27
  0
BLOCK_RECORD
  5
613
100
AcDbSymbolTableRecord
100
AcDbBlockTableRecord
  2
*D28
  0
BLOCK_RECORD
  5
629
100
AcDbSymbolTableRecord
100
AcDbBlockTableRecord
  2
*D29
  0
BLOCK_RECORD
  5
64F
100
AcDbSymbolTableRecord
100
AcDbBlockTableRecord
  2
*D30
  0
BLOCK_RECORD
  5
68D
100
AcDbSymbolTableRecord
100
AcDbBlockTableRecord
  2
*D31
  0
BLOCK_RECORD
  5
6AF
100
AcDbSymbolTableRecord
100
AcDbBlockTableRecord
  2
*D32
  0
BLOCK_RECORD
  5
6E5
100
AcDbSymbolTableRecord
100
AcDbBlockTableRecord
  2
*D33
  0
BLOCK_RECORD
  5
7A9
100
AcDbSymbolTableRecord
100
AcDbBlockTableRecord
  2
*D34
  0
BLOCK_RECORD
  5
7D7
100
AcDbSymbolTableRecord
100
AcDbBlockTableRecord
  2
TITLE_BLOCK
  0
ENDTAB
  0
ENDSEC
  0
SECTION
  2
BLOCKS
  0
BLOCK
  5
19
100
AcDbEntity
  8
0
100
AcDbBlockBegin
  2
*MODEL_SPACE
 70
     0
 10
0.0
 20
0.0
 30
0.0
  3
*MODEL_SPACE
  1

  0
ENDBLK
  5
1A
100
AcDbEntity
  8
0
100
AcDbBlockEnd
  0
BLOCK
  5
16
100
AcDbEntity
 67
     1
  8
0
100
AcDbBlockBegin
  2
*PAPER_SPACE
 70
     0
 10
0.0
 20
0.0
 30
0.0
  3
*PAPER_SPACE
  1

  0
ENDBLK
  5
17
100
AcDbEntity
 67
     1
  8
0
100
AcDbBlockEnd
  0
BLOCK
  5
2C
100
AcDbEntity
  8
0
100
AcDbBlockBegin
  2
*D0
 70
     1
 10
0.0
 20
0.0
 30
0.0
  3
*D0
  1

  0
LINE
  5
22
100
AcDbEntity
  8
0
  6
BYBLOCK
 62
     0
100
AcDbLine
 10
6.133689
 20
3.49392
 30
0.0
 11
8.919837
 21
3.49392
 31
0.0
  0
LINE
  5
23
100
AcDbEntity
  8
0
  6
BYBLOCK
 62
     0
100
AcDbLine
 10
7.541853
 20
9.49392
 30
0.0
 11
8.919837
 21
9.49392
 31
0.0
  0
LINE
  5
24
100
AcDbEntity
  8
0
  6
BYBLOCK
 62
     0
100
AcDbLine
 10
8.739837
 20
3.67392
 30
0.0
 11
8.739837
 21
6.115806
 31
0.0
  0
LINE
  5
25
100
AcDbEntity
  8
0
  6
BYBLOCK
 62
     0
100
AcDbLine
 10
8.739837
 20
9.31392
 30
0.0
 11
8.739837
 21
6.747034
 31
0.0
  0
SOLID
  5
26
100
AcDbEntity
  8
0
  6
BYBLOCK
 62
     0
100
AcDbTrace
 10
8.709837
 20
3.67392
 30
0.0
 11
8.769837
 21
3.67392
 31
0.0
 12
8.739837
 22
3.49392
 32
0.0
 13
8.739837
 23
3.49392
 33
0.0
  0
SOLID
  5
27
100
AcDbEntity
  8
0
  6
BYBLOCK
 62
     0
100
AcDbTrace
 10
8.709837
 20
9.31392
 30
0.0
 11
8.769837
 21
9.31392
 31
0.0
 12
8.739837
 22
9.49392
 32
0.0
 13
8.739837
 23
9.49392
 33
0.0
  0
MTEXT
  5
28
100
AcDbEntity
  8
0
  6
BYBLOCK
 62
     0
100
AcDbMText
 10
8.739837
 20
6.43142
 30
0.0
 40
0.15
 41
0.0
 71
     5
 72
     1
  1
\A1;\L6.003\P\l5.997
  0
POINT
  5
29
100
AcDbEntity
  8
DEFPOINTS
  6
BYBLOCK
 62
     0
100
AcDbPoint
 10
6.071189
 20
3.49392
 30
0.0
  0
POINT
  5
2A
100
AcDbEntity
  8
DEFPOINTS
  6
BYBLOCK
 62
     0
100
AcDbPoint
 10
7.479353
 20
9.49392
 30
0.0
  0
POINT
  5
2B
100
AcDbEntity
  8
DEFPOINTS
  6
BYBLOCK
 62
     0
100
AcDbPoint
 10
8.739837
 20
9.49392
 30
0.0
  0
ENDBLK
  5
2D
100
AcDbEntity
  8
0
100
AcDbBlockEnd
  0
BLOCK
  5
39
100
AcDbEntity
  8
0
100
AcDbBlockBegin
  2
*D1
 70
     1
 10
0.0
 20
0.0
 30
0.0
  3
*D1
  1

  0
LINE
  5
2F
100
AcDbEntity
  8
0
  6
BYBLOCK
 62
     0
100
AcDbLine
 10
11.782838
 20
11.80642
 30
0.0
 11
11.782838
 21
13.038152
 31
0.0
  0
LINE
  5
30
100
AcDbEntity
  8
0
  6
BYBLOCK
 62
     0
100
AcDbLine
 10
13.782838
 20
11.80642
 30
0.0
 11
13.782838
 21
13.038152
 31
0.0
  0
LINE
  5
31
100
AcDbEntity
  8
0
  6
BYBLOCK
 62
     0
100
AcDbLine
 10
11.962838
 20
12.858152
 30
0.0
 11
12.438728
 21
12.858152
 31
0.0
  0
LINE
  5
32
100
AcDbEntity
  8
0
  6
BYBLOCK
 62
     0
100
AcDbLine
 10
13.602838
 20
12.858152
 30
0.0
 11
13.126948
 21
12.858152
 31
0.0
  0
SOLID
  5
33
100
AcDbEntity
  8
0
  6
BYBLOCK
 62
     0
100
AcDbTrace
 10
11.962838
 20
12.888152
 30
0.0
 11
11.962838
 21
12.828152
 31
0.0
 12
11.782838
 22
12.858152
 32
0.0
 13
11.782838
 23
12.858152
 33
0.0
  0
SOLID
  5
34
100
AcDbEntity
  8
0
  6
BYBLOCK
 62
     0
100
AcDbTrace
 10
13.602838
 20
12.888152
 30
0.0
 11
13.602838
 21
12.828152
 31
0.0
 12
13.782838
 22
12.858152
 32
0.0
 13
13.782838
 23
12.858152
 33
0.0
  0
MTEXT
  5
35
100
AcDbEntity
  8
0
  6
BYBLOCK
 62
     0
100
AcDbMText
 10
12.782838
 20
12.858152
 30
0.0
 40
0.15
 41
0.0
 71
     5
 72
     1
  1
\A1;2.000
  0
POINT
  5
36
100
AcDbEntity
  8
DEFPOINTS
  6
BYBLOCK
 62
     0
100
AcDbPoint
 10
11.782838
 20
11.74392
 30
0.0
  0
POINT
  5
37
100
AcDbEntity
  8
DEFPOINTS
  6
BYBLOCK
 62
     0
100
AcDbPoint
 10
13.782838
 20
11.74392
 30
0.0
  0
POINT
  5
38
100
AcDbEntity
  8
DEFPOINTS
  6
BYBLOCK
 62
     0
100
AcDbPoint
 10
13.782838
 20
12.858152
 30
0.0
  0
ENDBLK
  5
3A
100
AcDbEntity
  8
0
100
AcDbBlockEnd
  0
BLOCK
  5
46
100
AcDbEntity
  8
0
100
AcDbBlockBegin
  2
*D2
 70
     1
 10
0.0
 20
0.0
 30
0.0
  3
*D2
  1

  0
LINE
  5
3C
100
AcDbEntity
  8
0
  6
BYBLOCK
 62
     0
100
AcDbLine
 10
11.782838
 20
11.80642
 30
0.0
 11
11.782838
 21
13.418152
 31
0.0
  0
LINE
  5
3D
100
AcDbEntity
  8
0
  6
BYBLOCK
 62
     0
100
AcDbLine
 10
15.782838
 20
11.80642
 30
0.0
 11
15.782838
 21
13.418152
 31
0.0
  0
LINE
  5
3E
100
AcDbEntity
  8
0
  6
BYBLOCK
 62
     0
100
AcDbLine
 10
11.962838
 20
13.238152
 30
0.0
 11
14.110433
 21
13.238152
 31
0.0
  0
LINE
  5
3F
100
AcDbEntity
  8
0
  6
BYBLOCK
 62
     0
100
AcDbLine
 10
15.602838
 20
13.238152
 30
0.0
 11
14.802643
 21
13.238152
 31
0.0
  0
SOLID
  5
40
100
AcDbEntity
  8
0
  6
BYBLOCK
 62
     0
100
AcDbTrace
 10
11.962838
 20
13.268152
 30
0.0
 11
11.962838
 21
13.208152
 31
0.0
 12
11.782838
 22
13.238152
 32
0.0
 13
11.782838
 23
13.238152
 33
0.0
  0
SOLID
  5
41
100
AcDbEntity
  8
0
  6
BYBLOCK
 62
     0
100
AcDbTrace
 10
15.602838
 20
13.268152
 30
0.0
 11
15.602838
 21
13.208152
 31
0.0
 12
15.782838
 22
13.238152
 32
0.0
 13
15.782838
 23
13.238152
 33
0.0
  0
MTEXT
  5
42
100
AcDbEntity
  8
0
  6
BYBLOCK
 62
     0
100
AcDbMText
 10
14.456538
 20
13.238152
 30
0.0
 40
0.15
 41
0.0
 71
     5
 72
     1
  1
\A1;\L4.003\P\l3.997
  0
POINT
  5
43
100
AcDbEntity
  8
DEFPOINTS
  6
BYBLOCK
 62
     0
100
AcDbPoint
 10
11.782838
 20
11.74392
 30
0.0
  0
POINT
  5
44
100
AcDbEntity
  8
DEFPOINTS
  6
BYBLOCK
 62
     0
100
AcDbPoint
 10
15.782838
 20
11.74392
 30
0.0
  0
POINT
  5
45
100
AcDbEntity
  8
DEFPOINTS
  6
BYBLOCK
 62
     0
100
AcDbPoint
 10
15.782838
 20
13.238152
 30
0.0
  0
ENDBLK
  5
47
100
AcDbEntity
  8
0
100
AcDbBlockEnd
  0
BLOCK
  5
53
100
AcDbEntity
  8
0
100
AcDbBlockBegin
  2
*D3
 70
     1
 10
0.0
 20
0.0
 30
0.0
  3
*D3
  1

  0
LINE
  5
49
100
AcDbEntity
  8
0
  6
BYBLOCK
 62
     0
100
AcDbLine
 10
0.854353
 20
11.499349
 30
0.0
 11
0.854353
 21
12.485715
 31
0.0
  0
LINE
  5
4A
100
AcDbEntity
  8
0
  6
BYBLOCK
 62
     0
100
AcDbLine
 10
4.104353
 20
11.811849
 30
0.0
 11
4.104353
 21
12.485715
 31
0.0
  0
LINE
  5
4B
100
AcDbEntity
  8
0
  6
BYBLOCK
 62
     0
100
AcDbLine
 10
1.04999
 20
12.290078
 30
0.0
 11
2.106795
 21
12.290078
 31
0.0
  0
LINE
  5
4C
100
AcDbEntity
  8
0
  6
BYBLOCK
 62
     0
100
AcDbLine
 10
3.908716
 20
12.290078
 30
0.0
 11
2.85191
 21
12.290078
 31
0.0
  0
SOLID
  5
4D
100
AcDbEntity
  8
0
  6
BYBLOCK
 62
     0
100
AcDbTrace
 10
1.04999
 20
12.322684
 30
0.0
 11
1.04999
 21
12.257472
 31
0.0
 12
0.854353
 22
12.290078
 32
0.0
 13
0.854353
 23
12.290078
 33
0.0
  0
SOLID
  5
4E
100
AcDbEntity
  8
0
  6
BYBLOCK
 62
     0
100
AcDbTrace
 10
3.908716
 20
12.322684
 30
0.0
 11
3.908716
 21
12.257472
 31
0.0
 12
4.104353
 22
12.290078
 32
0.0
 13
4.104353
 23
12.290078
 33
0.0
  0
MTEXT
  5
4F
100
AcDbEntity
  8
0
  6
BYBLOCK
 62
     0
100
AcDbMText
 10
2.479353
 20
12.290078
 30
0.0
 40
0.163031
 41
0.0
 71
     5
 72
     1
  1
\A1;3.250
  0
POINT
  5
50
100
AcDbEntity
  8
DEFPOINTS
  6
BYBLOCK
 62
     0
100
AcDbPoint
 10
0.854353
 20
11.43142
 30
0.0
  0
POINT
  5
51
100
AcDbEntity
  8
DEFPOINTS
  6
BYBLOCK
 62
     0
100
AcDbPoint
 10
4.104353
 20
11.74392
 30
0.0
  0
POINT
  5
52
100
AcDbEntity
  8
DEFPOINTS
  6
BYBLOCK
 62
     0
100
AcDbPoint
 10
4.104353
 20
12.290078
 30
0.0
  0
ENDBLK
  5
54
100
AcDbEntity
  8
0
100
AcDbBlockEnd
  0
BLOCK
  5
60
100
AcDbEntity
  8
0
100
AcDbBlockBegin
  2
*D4
 70
     1
 10
0.0
 20
0.0
 30
0.0
  3
*D4
  1

  0
LINE
  5
56
100
AcDbEntity
  8
0
  6
BYBLOCK
 62
     0
100
AcDbLine
 10
0.854353
 20
11.499349
 30
0.0
 11
0.854353
 21
13.013961
 31
0.0
  0
LINE
  5
57
100
AcDbEntity
  8
0
  6
BYBLOCK
 62
     0
100
AcDbLine
 10
7.354353
 20
11.499349
 30
0.0
 11
7.354353
 21
13.013961
 31
0.0
  0
LINE
  5
58
100
AcDbEntity
  8
0
  6
BYBLOCK
 62
     0
100
AcDbLine
 10
1.04999
 20
12.818324
 30
0.0
 11
3.72527
 21
12.818324
 31
0.0
  0
LINE
  5
59
100
AcDbEntity
  8
0
  6
BYBLOCK
 62
     0
100
AcDbLine
 10
7.158716
 20
12.818324
 30
0.0
 11
4.471942
 21
12.818324
 31
0.0
  0
SOLID
  5
5A
100
AcDbEntity
  8
0
  6
BYBLOCK
 62
     0
100
AcDbTrace
 10
1.04999
 20
12.85093
 30
0.0
 11
1.04999
 21
12.785718
 31
0.0
 12
0.854353
 22
12.818324
 32
0.0
 13
0.854353
 23
12.818324
 33
0.0
  0
SOLID
  5
5B
100
AcDbEntity
  8
0
  6
BYBLOCK
 62
     0
100
AcDbTrace
 10
7.158716
 20
12.85093
 30
0.0
 11
7.158716
 21
12.785718
 31
0.0
 12
7.354353
 22
12.818324
 32
0.0
 13
7.354353
 23
12.818324
 33
0.0
  0
MTEXT
  5
5C
100
AcDbEntity
  8
0
  6
BYBLOCK
 62
     0
100
AcDbMText
 10
4.098606
 20
12.818324
 30
0.0
 40
0.163031
 41
0.0
 71
     5
 72
     1
  1
\A1;\L6.503\P\l6.497
  0
POINT
  5
5D
100
AcDbEntity
  8
DEFPOINTS
  6
BYBLOCK
 62
     0
100
AcDbPoint
 10
0.854353
 20
11.43142
 30
0.0
  0
POINT
  5
5E
100
AcDbEntity
  8
DEFPOINTS
  6
BYBLOCK
 62
     0
100
AcDbPoint
 10
7.354353
 20
11.43142
 30
0.0
  0
POINT
  5
5F
100
AcDbEntity
  8
DEFPOINTS
  6
BYBLOCK
 62
     0
100
AcDbPoint
 10
7.354353
 20
12.818324
 30
0.0
  0
ENDBLK
  5
61
100
AcDbEntity
  8
0
100
AcDbBlockEnd
  0
BLOCK
  5
6D
100
AcDbEntity
  8
0
100
AcDbBlockBegin
  2
*D5
 70
     1
 10
0.0
 20
0.0
 30
0.0
  3
*D5
  1

  0
LINE
  5
63
100
AcDbEntity
  8
0
  6
BYBLOCK
 62
     0
100
AcDbLine
 10
15.850768
 20
10.99392
 30
0.0
 11
16.491377
 21
10.99392
 31
0.0
  0
LINE
  5
64
100
AcDbEntity
  8
0
  6
BYBLOCK
 62
     0
100
AcDbLine
 10
15.788268
 20
9.49392
 30
0.0
 11
16.491377
 21
9.49392
 31
0.0
  0
LINE
  5
65
100
AcDbEntity
  8
0
  6
BYBLOCK
 62
     0
100
AcDbLine
 10
16.29574
 20
10.798283
 30
0.0
 11
16.29574
 21
10.559446
 31
0.0
  0
LINE
  5
66
100
AcDbEntity
  8
0
  6
BYBLOCK
 62
     0
100
AcDbLine
 10
16.29574
 20
9.689557
 30
0.0
 11
16.29574
 21
9.928393
 31
0.0
  0
SOLID
  5
67
100
AcDbEntity
  8
0
  6
BYBLOCK
 62
     0
100
AcDbTrace
 10
16.263134
 20
10.798283
 30
0.0
 11
16.328347
 21
10.798283
 31
0.0
 12
16.29574
 22
10.99392
 32
0.0
 13
16.29574
 23
10.99392
 33
0.0
  0
SOLID
  5
68
100
AcDbEntity
  8
0
  6
BYBLOCK
 62
     0
100
AcDbTrace
 10
16.263134
 20
9.689557
 30
0.0
 11
16.328347
 21
9.689557
 31
0.0
 12
16.29574
 22
9.49392
 32
0.0
 13
16.29574
 23
9.49392
 33
0.0
  0
MTEXT
  5
69
100
AcDbEntity
  8
0
  6
BYBLOCK
 62
     0
100
AcDbMText
 10
16.29574
 20
10.24392
 30
0.0
 40
0.163031
 41
0.0
 71
     5
 72
     1
  1
\A1;1.500\PTYP.
  0
POINT
  5
6A
100
AcDbEntity
  8
DEFPOINTS
  6
BYBLOCK
 62
     0
100
AcDbPoint
 10
15.782838
 20
10.99392
 30
0.0
  0
POINT
  5
6B
100
AcDbEntity
  8
DEFPOINTS
  6
BYBLOCK
 62
     0
100
AcDbPoint
 10
15.720338
 20
9.49392
 30
0.0
  0
POINT
  5
6C
100
AcDbEntity
  8
DEFPOINTS
  6
BYBLOCK
 62
     0
100
AcDbPoint
 10
16.29574
 20
9.49392
 30
0.0
  0
ENDBLK
  5
6E
100
AcDbEntity
  8
0
100
AcDbBlockEnd
  0
BLOCK
  5
7A
100
AcDbEntity
  8
0
100
AcDbBlockBegin
  2
*D6
 70
     1
 10
0.0
 20
0.0
 30
0.0
  3
*D6
  1

  0
LINE
  5
70
100
AcDbEntity
  8
0
  6
BYBLOCK
 62
     0
100
AcDbLine
 10
15.850768
 20
10.99392
 30
0.0
 11
16.998525
 21
10.99392
 31
0.0
  0
LINE
  5
71
100
AcDbEntity
  8
0
  6
BYBLOCK
 62
     0
100
AcDbLine
 10
16.171019
 20
7.99392
 30
0.0
 11
16.998525
 21
7.99392
 31
0.0
  0
LINE
  5
72
100
AcDbEntity
  8
0
  6
BYBLOCK
 62
     0
100
AcDbLine
 10
16.802888
 20
10.798283
 30
0.0
 11
16.802888
 21
9.199968
 31
0.0
  0
LINE
  5
73
100
AcDbEntity
  8
0
  6
BYBLOCK
 62
     0
100
AcDbLine
 10
16.802888
 20
8.189557
 30
0.0
 11
16.802888
 21
8.568915
 31
0.0
  0
SOLID
  5
74
100
AcDbEntity
  8
0
  6
BYBLOCK
 62
     0
100
AcDbTrace
 10
16.770282
 20
10.798283
 30
0.0
 11
16.835494
 21
10.798283
 31
0.0
 12
16.802888
 22
10.99392
 32
0.0
 13
16.802888
 23
10.99392
 33
0.0
  0
SOLID
  5
75
100
AcDbEntity
  8
0
  6
BYBLOCK
 62
     0
100
AcDbTrace
 10
16.770282
 20
8.189557
 30
0.0
 11
16.835494
 21
8.189557
 31
0.0
 12
16.802888
 22
7.99392
 32
0.0
 13
16.802888
 23
7.99392
 33
0.0
  0
MTEXT
  5
76
100
AcDbEntity
  8
0
  6
BYBLOCK
 62
     0
100
AcDbMText
 10
16.802888
 20
8.884442
 30
0.0
 40
0.163031
 41
0.0
 71
     5
 72
     1
  1
\A1;3.000\PTYP.
  0
POINT
  5
77
100
AcDbEntity
  8
DEFPOINTS
  6
BYBLOCK
 62
     0
100
AcDbPoint
 10
15.782838
 20
10.99392
 30
0.0
  0
POINT
  5
78
100
AcDbEntity
  8
DEFPOINTS
  6
BYBLOCK
 62
     0
100
AcDbPoint
 10
16.103089
 20
7.99392
 30
0.0
  0
POINT
  5
79
100
AcDbEntity
  8
DEFPOINTS
  6
BYBLOCK
 62
     0
100
AcDbPoint
 10
16.802888
 20
7.99392
 30
0.0
  0
ENDBLK
  5
7B
100
AcDbEntity
  8
0
100
AcDbBlockEnd
  0
BLOCK
  5
85
100
AcDbEntity
  8
0
100
AcDbBlockBegin
  2
*D7
 70
     1
 10
0.0
 20
0.0
 30
0.0
  3
*D7
  1

  0
LINE
  5
7D
100
AcDbEntity
  8
0
  6
BYBLOCK
 62
     0
100
AcDbLine
 10
5.617749
 20
14.247779
 30
0.0
 11
5.292507
 21
14.247779
 31
0.0
  0
LINE
  5
7E
100
AcDbEntity
  8
0
  6
BYBLOCK
 62
     0
100
AcDbLine
 10
5.292507
 20
14.247779
 30
0.0
 11
4.242283
 21
11.592632
 31
0.0
  0
MTEXT
  5
7F
100
AcDbEntity
  8
0
  6
BYBLOCK
 62
     0
100
AcDbMText
 10
5.780805
 20
14.247779
 30
0.0
 40
0.15
 41
0.0
 71
     5
 72
     1
  1
\A1;\U+2205
  0
SOLID
  5
80
100
AcDbEntity
  8
0
  6
BYBLOCK
 62
     0
100
AcDbTrace
 10
4.214386
 20
11.603666
 30
0.0
 11
4.27018
 21
11.581598
 31
0.0
 12
4.176077
 22
11.42525
 32
0.0
 13
4.176077
 23
11.42525
 33
0.0
  0
LINE
  5
81
100
AcDbEntity
  8
0
  6
BYBLOCK
 62
     0
100
AcDbLine
 10
4.014353
 20
11.24392
 30
0.0
 11
4.194353
 21
11.24392
 31
0.0
  0
LINE
  5
82
100
AcDbEntity
  8
0
  6
BYBLOCK
 62
     0
100
AcDbLine
 10
4.104353
 20
11.15392
 30
0.0
 11
4.104353
 21
11.33392
 31
0.0
  0
POINT
  5
83
100
AcDbEntity
  8
DEFPOINTS
  6
BYBLOCK
 62
     0
100
AcDbPoint
 10
4.176077
 20
11.42525
 30
0.0
  0
POINT
  5
84
100
AcDbEntity
  8
DEFPOINTS
  6
BYBLOCK
 62
     0
100
AcDbPoint
 10
4.032629
 20
11.062589
 30
0.0
  0
ENDBLK
  5
86
100
AcDbEntity
  8
0
100
AcDbBlockEnd
  0
BLOCK
  5
92
100
AcDbEntity
  8
0
100
AcDbBlockBegin
  2
*D8
 70
     1
 10
0.0
 20
0.0
 30
0.0
  3
*D8
  1

  0
LINE
  5
88
100
AcDbEntity
  8
0
  6
BYBLOCK
 62
     0
100
AcDbLine
 10
12.282838
 20
11.586936
 30
0.0
 11
12.282838
 21
12.259136
 31
0.0
  0
LINE
  5
89
100
AcDbEntity
  8
0
  6
BYBLOCK
 62
     0
100
AcDbLine
 10
13.782838
 20
11.586936
 30
0.0
 11
13.782838
 21
12.259136
 31
0.0
  0
LINE
  5
8A
100
AcDbEntity
  8
0
  6
BYBLOCK
 62
     0
100
AcDbLine
 10
12.462838
 20
12.079136
 30
0.0
 11
12.687276
 21
12.079136
 31
0.0
  0
LINE
  5
8B
100
AcDbEntity
  8
0
  6
BYBLOCK
 62
     0
100
AcDbLine
 10
13.602838
 20
12.079136
 30
0.0
 11
13.388387
 21
12.079136
 31
0.0
  0
SOLID
  5
8C
100
AcDbEntity
  8
0
  6
BYBLOCK
 62
     0
100
AcDbTrace
 10
12.462838
 20
12.109136
 30
0.0
 11
12.462838
 21
12.049136
 31
0.0
 12
12.282838
 22
12.079136
 32
0.0
 13
12.282838
 23
12.079136
 33
0.0
  0
SOLID
  5
8D
100
AcDbEntity
  8
0
  6
BYBLOCK
 62
     0
100
AcDbTrace
 10
13.602838
 20
12.109136
 30
0.0
 11
13.602838
 21
12.049136
 31
0.0
 12
13.782838
 22
12.079136
 32
0.0
 13
13.782838
 23
12.079136
 33
0.0
  0
MTEXT
  5
8E
100
AcDbEntity
  8
0
  6
BYBLOCK
 62
     0
100
AcDbMText
 10
13.037831
 20
12.079136
 30
0.0
 40
0.15
 41
0.0
 71
     5
 72
     1
  1
\A1;1.500\PTYP.
  0
POINT
  5
8F
100
AcDbEntity
  8
DEFPOINTS
  6
BYBLOCK
 62
     0
100
AcDbPoint
 10
12.282838
 20
11.524436
 30
0.0
  0
POINT
  5
90
100
AcDbEntity
  8
DEFPOINTS
  6
BYBLOCK
 62
     0
100
AcDbPoint
 10
13.782838
 20
11.524436
 30
0.0
  0
POINT
  5
91
100
AcDbEntity
  8
DEFPOINTS
  6
BYBLOCK
 62
     0
100
AcDbPoint
 10
13.782838
 20
12.079136
 30
0.0
  0
ENDBLK
  5
93
100
AcDbEntity
  8
0
100
AcDbBlockEnd
  0
BLOCK
  5
9F
100
AcDbEntity
  8
0
100
AcDbBlockBegin
  2
*D9
 70
     1
 10
0.0
 20
0.0
 30
0.0
  3
*D9
  1

  0
LINE
  5
95
100
AcDbEntity
  8
0
  6
BYBLOCK
 62
     0
100
AcDbLine
 10
12.282838
 20
11.586936
 30
0.0
 11
12.282838
 21
12.639136
 31
0.0
  0
LINE
  5
96
100
AcDbEntity
  8
0
  6
BYBLOCK
 62
     0
100
AcDbLine
 10
15.282838
 20
11.586936
 30
0.0
 11
15.282838
 21
12.639136
 31
0.0
  0
LINE
  5
97
100
AcDbEntity
  8
0
  6
BYBLOCK
 62
     0
100
AcDbLine
 10
12.462838
 20
12.459136
 30
0.0
 11
14.030107
 21
12.459136
 31
0.0
  0
LINE
  5
98
100
AcDbEntity
  8
0
  6
BYBLOCK
 62
     0
100
AcDbLine
 10
15.102838
 20
12.459136
 30
0.0
 11
14.715666
 21
12.459136
 31
0.0
  0
SOLID
  5
99
100
AcDbEntity
  8
0
  6
BYBLOCK
 62
     0
100
AcDbTrace
 10
12.462838
 20
12.489136
 30
0.0
 11
12.462838
 21
12.429136
 31
0.0
 12
12.282838
 22
12.459136
 32
0.0
 13
12.282838
 23
12.459136
 33
0.0
  0
SOLID
  5
9A
100
AcDbEntity
  8
0
  6
BYBLOCK
 62
     0
100
AcDbTrace
 10
15.102838
 20
12.489136
 30
0.0
 11
15.102838
 21
12.429136
 31
0.0
 12
15.282838
 22
12.459136
 32
0.0
 13
15.282838
 23
12.459136
 33
0.0
  0
MTEXT
  5
9B
100
AcDbEntity
  8
0
  6
BYBLOCK
 62
     0
100
AcDbMText
 10
14.372887
 20
12.459136
 30
0.0
 40
0.15
 41
0.0
 71
     5
 72
     1
  1
\A1;3.000\PTYP.
  0
POINT
  5
9C
100
AcDbEntity
  8
DEFPOINTS
  6
BYBLOCK
 62
     0
100
AcDbPoint
 10
12.282838
 20
11.524436
 30
0.0
  0
POINT
  5
9D
100
AcDbEntity
  8
DEFPOINTS
  6
BYBLOCK
 62
     0
100
AcDbPoint
 10
15.282838
 20
11.524436
 30
0.0
  0
POINT
  5
9E
100
AcDbEntity
  8
DEFPOINTS
  6
BYBLOCK
 62
     0
100
AcDbPoint
 10
15.282838
 20
12.459136
 30
0.0
  0
ENDBLK
  5
A0
100
AcDbEntity
  8
0
100
AcDbBlockEnd
  0
BLOCK
  5
AC
100
AcDbEntity
  8
0
100
AcDbBlockBegin
  2
*D10
 70
     1
 10
0.0
 20
0.0
 30
0.0
  3
*D10
  1

  0
LINE
  5
A2
100
AcDbEntity
  8
0
  6
BYBLOCK
 62
     0
100
AcDbLine
 10
2.358032
 20
6.319687
 30
0.0
 11
2.358032
 21
2.79501
 31
0.0
  0
LINE
  5
A3
100
AcDbEntity
  8
0
  6
BYBLOCK
 62
     0
100
AcDbLine
 10
4.104353
 20
3.43142
 30
0.0
 11
4.104353
 21
2.79501
 31
0.0
  0
LINE
  5
A4
100
AcDbEntity
  8
0
  6
BYBLOCK
 62
     0
100
AcDbLine
 10
2.538032
 20
2.97501
 30
0.0
 11
2.834839
 21
2.97501
 31
0.0
  0
LINE
  5
A5
100
AcDbEntity
  8
0
  6
BYBLOCK
 62
     0
100
AcDbLine
 10
3.924353
 20
2.97501
 30
0.0
 11
3.535951
 21
2.97501
 31
0.0
  0
SOLID
  5
A6
100
AcDbEntity
  8
0
  6
BYBLOCK
 62
     0
100
AcDbTrace
 10
2.538032
 20
3.00501
 30
0.0
 11
2.538032
 21
2.94501
 31
0.0
 12
2.358032
 22
2.97501
 32
0.0
 13
2.358032
 23
2.97501
 33
0.0
  0
SOLID
  5
A7
100
AcDbEntity
  8
0
  6
BYBLOCK
 62
     0
100
AcDbTrace
 10
3.924353
 20
3.00501
 30
0.0
 11
3.924353
 21
2.94501
 31
0.0
 12
4.104353
 22
2.97501
 32
0.0
 13
4.104353
 23
2.97501
 33
0.0
  0
MTEXT
  5
A8
100
AcDbEntity
  8
0
  6
BYBLOCK
 62
     0
100
AcDbMText
 10
3.185395
 20
2.97501
 30
0.0
 40
0.15
 41
0.0
 71
     5
 72
     1
  1
\A1;1.750
  0
POINT
  5
A9
100
AcDbEntity
  8
DEFPOINTS
  6
BYBLOCK
 62
     0
100
AcDbPoint
 10
2.358032
 20
6.382187
 30
0.0
  0
POINT
  5
AA
100
AcDbEntity
  8
DEFPOINTS
  6
BYBLOCK
 62
     0
100
AcDbPoint
 10
4.104353
 20
3.49392
 30
0.0
  0
POINT
  5
AB
100
AcDbEntity
  8
DEFPOINTS
  6
BYBLOCK
 62
     0
100
AcDbPoint
 10
4.104353
 20
2.97501
 30
0.0
  0
ENDBLK
  5
AD
100
AcDbEntity
  8
0
100
AcDbBlockEnd
  0
BLOCK
  5
B9
100
AcDbEntity
  8
0
100
AcDbBlockBegin
  2
*D11
 70
     1
 10
0.0
 20
0.0
 30
0.0
  3
*D11
  1

  0
LINE
  5
AF
100
AcDbEntity
  8
0
  6
BYBLOCK
 62
     0
100
AcDbLine
 10
2.358032
 20
6.319687
 30
0.0
 11
2.358032
 21
2.41501
 31
0.0
  0
LINE
  5
B0
100
AcDbEntity
  8
0
  6
BYBLOCK
 62
     0
100
AcDbLine
 10
5.854353
 20
6.48642
 30
0.0
 11
5.854353
 21
2.41501
 31
0.0
  0
LINE
  5
B1
100
AcDbEntity
  8
0
  6
BYBLOCK
 62
     0
100
AcDbLine
 10
2.538032
 20
2.59501
 30
0.0
 11
3.763413
 21
2.59501
 31
0.0
  0
LINE
  5
B2
100
AcDbEntity
  8
0
  6
BYBLOCK
 62
     0
100
AcDbLine
 10
5.674353
 20
2.59501
 30
0.0
 11
4.448972
 21
2.59501
 31
0.0
  0
SOLID
  5
B3
100
AcDbEntity
  8
0
  6
BYBLOCK
 62
     0
100
AcDbTrace
 10
2.538032
 20
2.62501
 30
0.0
 11
2.538032
 21
2.56501
 31
0.0
 12
2.358032
 22
2.59501
 32
0.0
 13
2.358032
 23
2.59501
 33
0.0
  0
SOLID
  5
B4
100
AcDbEntity
  8
0
  6
BYBLOCK
 62
     0
100
AcDbTrace
 10
5.674353
 20
2.62501
 30
0.0
 11
5.674353
 21
2.56501
 31
0.0
 12
5.854353
 22
2.59501
 32
0.0
 13
5.854353
 23
2.59501
 33
0.0
  0
MTEXT
  5
B5
100
AcDbEntity
  8
0
  6
BYBLOCK
 62
     0
100
AcDbMText
 10
4.106192
 20
2.59501
 30
0.0
 40
0.15
 41
0.0
 71
     5
 72
     1
  1
\A1;3.500
  0
POINT
  5
B6
100
AcDbEntity
  8
DEFPOINTS
  6
BYBLOCK
 62
     0
100
AcDbPoint
 10
2.358032
 20
6.382187
 30
0.0
  0
POINT
  5
B7
100
AcDbEntity
  8
DEFPOINTS
  6
BYBLOCK
 62
     0
100
AcDbPoint
 10
5.854353
 20
6.54892
 30
0.0
  0
POINT
  5
B8
100
AcDbEntity
  8
DEFPOINTS
  6
BYBLOCK
 62
     0
100
AcDbPoint
 10
5.854353
 20
2.59501
 30
0.0
  0
ENDBLK
  5
BA
100
AcDbEntity
  8
0
100
AcDbBlockEnd
  0
BLOCK
  5
C6
100
AcDbEntity
  8
0
100
AcDbBlockBegin
  2
*D12
 70
     1
 10
0.0
 20
0.0
 30
0.0
  3
*D12
  1

  0
LINE
  5
BC
100
AcDbEntity
  8
0
  6
BYBLOCK
 62
     0
100
AcDbLine
 10
4.361853
 20
11.24392
 30
0.0
 11
8.045076
 21
11.24392
 31
0.0
  0
LINE
  5
BD
100
AcDbEntity
  8
0
  6
BYBLOCK
 62
     0
100
AcDbLine
 10
7.604353
 20
9.49392
 30
0.0
 11
8.045076
 21
9.49392
 31
0.0
  0
LINE
  5
BE
100
AcDbEntity
  8
0
  6
BYBLOCK
 62
     0
100
AcDbLine
 10
7.865076
 20
11.06392
 30
0.0
 11
7.865076
 21
10.597929
 31
0.0
  0
LINE
  5
BF
100
AcDbEntity
  8
0
  6
BYBLOCK
 62
     0
100
AcDbLine
 10
7.865076
 20
9.67392
 30
0.0
 11
7.865076
 21
10.264758
 31
0.0
  0
SOLID
  5
C0
100
AcDbEntity
  8
0
  6
BYBLOCK
 62
     0
100
AcDbTrace
 10
7.835076
 20
11.06392
 30
0.0
 11
7.895076
 21
11.06392
 31
0.0
 12
7.865076
 22
11.24392
 32
0.0
 13
7.865076
 23
11.24392
 33
0.0
  0
SOLID
  5
C1
100
AcDbEntity
  8
0
  6
BYBLOCK
 62
     0
100
AcDbTrace
 10
7.835076
 20
9.67392
 30
0.0
 11
7.895076
 21
9.67392
 31
0.0
 12
7.865076
 22
9.49392
 32
0.0
 13
7.865076
 23
9.49392
 33
0.0
  0
MTEXT
  5
C2
100
AcDbEntity
  8
0
  6
BYBLOCK
 62
     0
100
AcDbMText
 10
7.865076
 20
10.431344
 30
0.0
 40
0.15
 41
0.0
 71
     5
 72
     1
  1
\A1;1.750
  0
POINT
  5
C3
100
AcDbEntity
  8
DEFPOINTS
  6
BYBLOCK
 62
     0
100
AcDbPoint
 10
4.299353
 20
11.24392
 30
0.0
  0
POINT
  5
C4
100
AcDbEntity
  8
DEFPOINTS
  6
BYBLOCK
 62
     0
100
AcDbPoint
 10
7.541853
 20
9.49392
 30
0.0
  0
POINT
  5
C5
100
AcDbEntity
  8
DEFPOINTS
  6
BYBLOCK
 62
     0
100
AcDbPoint
 10
7.865076
 20
9.49392
 30
0.0
  0
ENDBLK
  5
C7
100
AcDbEntity
  8
0
100
AcDbBlockEnd
  0
BLOCK
  5
D3
100
AcDbEntity
  8
0
100
AcDbBlockBegin
  2
*D13
 70
     1
 10
0.0
 20
0.0
 30
0.0
  3
*D13
  1

  0
LINE
  5
C9
100
AcDbEntity
  8
0
  6
BYBLOCK
 62
     0
100
AcDbLine
 10
6.591373
 20
6.74392
 30
0.0
 11
8.047184
 21
6.74392
 31
0.0
  0
LINE
  5
CA
100
AcDbEntity
  8
0
  6
BYBLOCK
 62
     0
100
AcDbLine
 10
7.604353
 20
9.49392
 30
0.0
 11
8.047184
 21
9.49392
 31
0.0
  0
LINE
  5
CB
100
AcDbEntity
  8
0
  6
BYBLOCK
 62
     0
100
AcDbLine
 10
7.867184
 20
6.92392
 30
0.0
 11
7.867184
 21
7.969816
 31
0.0
  0
LINE
  5
CC
100
AcDbEntity
  8
0
  6
BYBLOCK
 62
     0
100
AcDbLine
 10
7.867184
 20
9.31392
 30
0.0
 11
7.867184
 21
8.302988
 31
0.0
  0
SOLID
  5
CD
100
AcDbEntity
  8
0
  6
BYBLOCK
 62
     0
100
AcDbTrace
 10
7.837184
 20
6.92392
 30
0.0
 11
7.897184
 21
6.92392
 31
0.0
 12
7.867184
 22
6.74392
 32
0.0
 13
7.867184
 23
6.74392
 33
0.0
  0
SOLID
  5
CE
100
AcDbEntity
  8
0
  6
BYBLOCK
 62
     0
100
AcDbTrace
 10
7.837184
 20
9.31392
 30
0.0
 11
7.897184
 21
9.31392
 31
0.0
 12
7.867184
 22
9.49392
 32
0.0
 13
7.867184
 23
9.49392
 33
0.0
  0
MTEXT
  5
CF
100
AcDbEntity
  8
0
  6
BYBLOCK
 62
     0
100
AcDbMText
 10
7.867184
 20
8.136402
 30
0.0
 40
0.15
 41
0.0
 71
     5
 72
     1
  1
\A1;2.750
  0
POINT
  5
D0
100
AcDbEntity
  8
DEFPOINTS
  6
BYBLOCK
 62
     0
100
AcDbPoint
 10
6.528873
 20
6.74392
 30
0.0
  0
POINT
  5
D1
100
AcDbEntity
  8
DEFPOINTS
  6
BYBLOCK
 62
     0
100
AcDbPoint
 10
7.541853
 20
9.49392
 30
0.0
  0
POINT
  5
D2
100
AcDbEntity
  8
DEFPOINTS
  6
BYBLOCK
 62
     0
100
AcDbPoint
 10
7.867184
 20
9.49392
 30
0.0
  0
ENDBLK
  5
D4
100
AcDbEntity
  8
0
100
AcDbBlockEnd
  0
BLOCK
  5
210
100
AcDbEntity
  8
0
100
AcDbBlockBegin
  2
BOB
 70
     0
 10
0.0
 20
0.0
 30
0.0
  3
BOB
  1

  0
CIRCLE
  5
DF
100
AcDbEntity
  8
HIDDEN_LINE
  6
HIDDEN2
100
AcDbCircle
 10
3.730123
 20
0.070545
 30
0.0
 40
1.4685
  0
CIRCLE
  5
E0
100
AcDbEntity
  8
0
100
AcDbCircle
 10
3.730123
 20
0.070545
 30
0.0
 40
1.4175
  0
DIMENSION
  5
E1
100
AcDbEntity
  8
DIMS_TEXT
100
AcDbDimension
  2
*D9
 10
5.230123
 20
3.035761
 30
0.0
 11
4.320171
 21
3.035761
 31
0.0
 12
-10.052715
 22
-9.423375
 32
0.0
 70
   128
  1
3.000\PTYP.
  3
STANDARD
100
AcDbAlignedDimension
 13
2.230123
 23
2.101061
 33
0.0
 14
5.230123
 24
2.101061
 34
0.0
100
AcDbRotatedDimension
1001
ACAD
1000
DSTYLE
1002
{
1070
    78
1070
     4
1070
   288
1070
     1
1070
   284
1070
     4
1070
   140
1040
0.15
1070
   272
1070
     0
1070
   271
1070
     2
1002
}
  0
DIMENSION
  5
E2
100
AcDbEntity
  8
DIMS_TEXT
100
AcDbDimension
  2
*D8
 10
3.730123
 20
2.655761
 30
0.0
 11
2.985116
 21
2.655761
 31
0.0
 12
-10.052715
 22
-9.423375
 32
0.0
 70
   128
  1
1.500\PTYP.
  3
STANDARD
100
AcDbAlignedDimension
 13
2.230123
 23
2.101061
 33
0.0
 14
3.730123
 24
2.101061
 34
0.0
100
AcDbRotatedDimension
1001
ACAD
1000
DSTYLE
1002
{
1070
    78
1070
     4
1070
   288
1070
     1
1070
   284
1070
     4
1070
   140
1040
0.15
1070
   272
1070
     0
1070
   271
1070
     2
1002
}
  0
LINE
  5
E3
100
AcDbEntity
  8
CTR_LINES
100
AcDbLine
 10
1.565998
 20
-1.429455
 30
0.0
 11
6.050374
 21
-1.429455
 31
0.0
  0
LINE
  5
E4
100
AcDbEntity
  8
CTR_LINES
100
AcDbLine
 10
1.565998
 20
1.570545
 30
0.0
 11
6.097258
 21
1.570545
 31
0.0
  0
LINE
  5
E5
100
AcDbEntity
  8
HIDDEN_LINE
  6
HIDDEN2
100
AcDbLine
 10
1.730123
 20
-2.874455
 30
0.0
 11
5.730123
 21
-2.874455
 31
0.0
  0
LINE
  5
E6
100
AcDbEntity
  8
HIDDEN_LINE
  6
HIDDEN2
100
AcDbLine
 10
1.730123
 20
-2.484455
 30
0.0
 11
5.730123
 21
-2.484455
 31
0.0
  0
TEXT
  5
E7
100
AcDbEntity
  8
DIMS_TEXT
100
AcDbText
 10
3.024545
 20
-7.449783
 30
0.0
 40
0.25
  1
A
100
AcDbText
  0
DIMENSION
  5
E8
100
AcDbEntity
  8
DIMS_TEXT
100
AcDbDimension
  2
*D2
 10
5.730123
 20
3.814777
 30
0.0
 11
4.403823
 21
3.814777
 31
0.0
 12
-10.052715
 22
-9.423375
 32
0.0
 70
   128
  1
\L4.003\P\l3.997
  3
STANDARD
100
AcDbAlignedDimension
 13
1.730123
 23
2.320545
 33
0.0
 14
5.730123
 24
2.320545
 34
0.0
100
AcDbRotatedDimension
1001
ACAD
1000
DSTYLE
1002
{
1070
    78
1070
     4
1070
   284
1070
     4
1070
   140
1040
0.15
1070
   272
1070
     0
1070
   271
1070
     2
1002
}
  0
DIMENSION
  5
E9
100
AcDbEntity
  8
DIMS_TEXT
100
AcDbDimension
  2
*D1
 10
3.730123
 20
3.434777
 30
0.0
 11
2.730123
 21
3.434777
 31
0.0
 12
-10.052715
 22
-9.423375
 32
0.0
  1
2.000
  3
STANDARD
100
AcDbAlignedDimension
 13
1.730123
 23
2.320545
 33
0.0
 14
3.730123
 24
2.320545
 34
0.0
100
AcDbRotatedDimension
1001
ACAD
1000
DSTYLE
1002
{
1070
    78
1070
     4
1070
   284
1070
     4
1070
   140
1040
0.15
1070
   272
1070
     0
1070
   271
1070
     2
1002
}
  0
LINE
  5
EA
100
AcDbEntity
  8
0
100
AcDbLine
 10
2.762123
 20
-5.179455
 30
0.0
 11
4.480123
 21
-5.179455
 31
0.0
  0
LINE
  5
EB
100
AcDbEntity
  8
0
100
AcDbLine
 10
2.980123
 20
-3.179455
 30
0.0
 11
4.480123
 21
-3.179455
 31
0.0
  0
LINE
  5
EC
100
AcDbEntity
  8
0
100
AcDbLine
 10
2.887123
 20
-2.179455
 30
0.0
 11
4.698123
 21
-2.179455
 31
0.0
  0
LINE
  5
ED
100
AcDbEntity
  8
CTR_LINES
100
AcDbLine
 10
0.913592
 20
-2.679455
 30
0.0
 11
6.507778
 21
-2.679455
 31
0.0
  0
LINE
  5
EE
100
AcDbEntity
  8
HIDDEN_LINE
  6
HIDDEN2
100
AcDbLine
 10
2.980123
 20
-1.679455
 30
0.0
 11
4.45527
 21
-1.679455
 31
0.0
  0
LINE
  5
EF
100
AcDbEntity
  8
0
100
AcDbLine
 10
1.730123
 20
2.320545
 30
0.0
 11
5.730123
 21
2.320545
 31
0.0
  0
LINE
  5
F0
100
AcDbEntity
  8
0
100
AcDbLine
 10
2.229623
 20
2.008045
 30
0.0
 11
5.230623
 21
2.008045
 31
0.0
  0
LINE
  5
F1
100
AcDbEntity
  8
HIDDEN_LINE
  6
HIDDEN2
100
AcDbLine
 10
3.004975
 20
1.820545
 30
0.0
 11
4.45527
 21
1.820545
 31
0.0
  0
LINE
  5
F2
100
AcDbEntity
  8
0
100
AcDbLine
 10
2.229623
 20
-1.866955
 30
0.0
 11
5.230623
 21
-1.866955
 31
0.0
  0
LINE
  5
F3
100
AcDbEntity
  8
0
100
AcDbLine
 10
1.793123
 20
-6.054455
 30
0.0
 11
5.667123
 21
-6.054455
 31
0.0
  0
DIMENSION
  5
F4
100
AcDbEntity
  8
DIMS_TEXT
100
AcDbDimension
  2
*D13
 10
-2.185532
 20
0.070545
 30
0.0
 11
-2.185532
 21
-1.286973
 31
0.0
 12
-10.052715
 22
-9.423375
 32
0.0
 70
   128
  1
2.750
  3
STANDARD
100
AcDbAlignedDimension
 13
-3.523843
 23
-2.679455
 33
0.0
 14
-2.510863
 24
0.070545
 34
0.0
 50
90.0
100
AcDbRotatedDimension
1001
ACAD
1000
DSTYLE
1002
{
1070
    78
1070
     4
1070
   288
1070
     1
1070
   284
1070
     4
1070
   140
1040
0.15
1070
   272
1070
     0
1070
   271
1070
     2
1002
}
  0
LINE
  5
F5
100
AcDbEntity
  8
CTR_LINES
100
AcDbLine
 10
2.230123
 20
-7.331259
 30
0.0
 11
2.230123
 21
2.101061
 31
0.0
  0
LINE
  5
F6
100
AcDbEntity
  8
0
100
AcDbLine
 10
1.730123
 20
-3.179455
 30
0.0
 11
1.730123
 21
-2.179455
 31
0.0
  0
DIMENSION
  5
F7
100
AcDbEntity
  8
DIMS_TEXT
100
AcDbDimension
  2
*D0
 10
-1.312879
 20
0.070545
 30
0.0
 11
-1.312879
 21
-2.991955
 31
0.0
 12
-10.052715
 22
-9.423375
 32
0.0
 70
   128
  1
\L6.003\P\l5.997
  3
STANDARD
100
AcDbAlignedDimension
 13
-3.981526
 23
-5.929455
 33
0.0
 14
-2.573363
 24
0.070545
 34
0.0
 50
90.0
100
AcDbRotatedDimension
1001
ACAD
1000
DSTYLE
1002
{
1070
    78
1070
     4
1070
   284
1070
     4
1070
   140
1040
0.15
1070
   272
1070
     0
1070
   271
1070
     2
1002
}
  0
LINE
  5
F8
100
AcDbEntity
  8
HIDDEN_LINE
  6
HIDDEN2
100
AcDbLine
 10
1.980123
 20
-3.272455
 30
0.0
 11
1.980123
 21
-2.086455
 31
0.0
  0
LINE
  5
F9
100
AcDbEntity
  8
0
100
AcDbLine
 10
-4.119948
 20
-2.185642
 30
0.0
 11
-4.041723
 21
-2.212207
 31
0.0
  0
ARC
  5
FA
100
AcDbEntity
  8
0
100
AcDbCircle
 10
-4.105363
 20
-2.093793
 30
0.0
 40
0.093
100
AcDbArc
 50
180.0
 51
260.977073
  0
ARC
  5
FB
100
AcDbEntity
  8
0
100
AcDbCircle
 10
2.887123
 20
-2.086455
 30
0.0
 40
0.093
100
AcDbArc
 50
270.0
 51
0.0
  0
ARC
  5
FC
100
AcDbEntity
  8
0
100
AcDbCircle
 10
1.887123
 20
-2.086455
 30
0.0
 40
0.093
100
AcDbArc
 50
270.0
 51
360.0
  0
ARC
  5
FD
100
AcDbEntity
  8
0
100
AcDbCircle
 10
-7.791363
 20
-2.093793
 30
0.0
 40
0.093
100
AcDbArc
 50
279.022927
 51
0.0
  0
ARC
  5
FE
100
AcDbEntity
  8
0
100
AcDbCircle
 10
-6.791363
 20
-2.086455
 30
0.0
 40
0.093
100
AcDbArc
 50
270.0
 51
0.0
  0
ARC
  5
FF
100
AcDbEntity
  8
0
100
AcDbCircle
 10
-5.105363
 20
-2.086455
 30
0.0
 40
0.093
100
AcDbArc
 50
180.0
 51
270.0
  0
CIRCLE
  5
100
100
AcDbEntity
  8
0
100
AcDbCircle
 10
-4.198363
 20
-2.679455
 30
0.0
 40
0.5
  0
CIRCLE
  5
101
100
AcDbEntity
  8
0
100
AcDbCircle
 10
-7.698363
 20
-2.679455
 30
0.0
 40
0.5
  0
LINE
  5
102
100
AcDbEntity
  8
CTR_LINES
100
AcDbLine
 10
-5.948363
 20
-6.562635
 30
0.0
 11
-5.948363
 21
2.779002
 31
0.0
  0
DIMENSION
  5
103
100
AcDbEntity
  8
DIMS_TEXT
100
AcDbDimension
  2
*D11
 10
-4.198363
 20
-6.828365
 30
0.0
 11
-5.946523
 21
-6.828365
 31
0.0
 12
-10.052715
 22
-9.423375
 32
0.0
  1
3.500
  3
STANDARD
100
AcDbAlignedDimension
 13
-7.694683
 23
-3.041188
 33
0.0
 14
-4.198363
 24
-2.874455
 34
0.0
100
AcDbRotatedDimension
1001
ACAD
1000
DSTYLE
1002
{
1070
    78
1070
     4
1070
   288
1070
     1
1070
   284
1070
     4
1070
   140
1040
0.15
1070
   272
1070
     0
1070
   271
1070
     2
1002
}
  0
LINE
  5
104
100
AcDbEntity
  8
0
100
AcDbLine
 10
-7.885863
 20
-5.929455
 30
0.0
 11
-4.010863
 21
-5.929455
 31
0.0
  0
LINE
  5
105
100
AcDbEntity
  8
0
100
AcDbLine
 10
-5.138363
 20
-3.186136
 30
0.0
 11
-4.214568
 21
-3.186136
 31
0.0
  0
LINE
  5
106
100
AcDbEntity
  8
0
100
AcDbLine
 10
-5.105363
 20
-5.179455
 30
0.0
 11
-4.103863
 21
-5.179455
 31
0.0
  0
DIMENSION
  5
107
100
AcDbEntity
  8
DIMS_TEXT
100
AcDbDimension
  2
*D10
 10
-5.948363
 20
-6.448365
 30
0.0
 11
-6.867321
 21
-6.448365
 31
0.0
 12
-10.052715
 22
-9.423375
 32
0.0
 70
   128
  1
1.750
  3
STANDARD
100
AcDbAlignedDimension
 13
-7.694683
 23
-3.041188
 33
0.0
 14
-5.948363
 24
-5.929455
 34
0.0
100
AcDbRotatedDimension
1001
ACAD
1000
DSTYLE
1002
{
1070
    78
1070
     4
1070
   288
1070
     1
1070
   284
1070
     4
1070
   140
1040
0.15
1070
   272
1070
     0
1070
   271
1070
     2
1002
}
  0
LINE
  5
108
100
AcDbEntity
  8
0
100
AcDbLine
 10
-6.698363
 20
-5.086455
 30
0.0
 11
-6.698363
 21
-3.267905
 31
0.0
  0
LINE
  5
109
100
AcDbEntity
  8
0
100
AcDbLine
 10
-5.198363
 20
-5.086455
 30
0.0
 11
-5.198363
 21
-3.246136
 31
0.0
  0
LINE
  5
10A
100
AcDbEntity
  8
0
100
AcDbLine
 10
-7.698363
 20
-3.265117
 30
0.0
 11
-7.698363
 21
-5.086455
 31
0.0
  0
LINE
  5
10B
100
AcDbEntity
  8
0
100
AcDbLine
 10
-7.791363
 20
-5.179455
 30
0.0
 11
-6.791363
 21
-5.179455
 31
0.0
  0
LINE
  5
10C
100
AcDbEntity
  8
HIDDEN_LINE
  6
HIDDEN2
100
AcDbLine
 10
-7.635363
 20
-5.929455
 30
0.0
 11
-7.635363
 21
-5.179455
 31
0.0
  0
LINE
  5
10D
100
AcDbEntity
  8
HIDDEN_LINE
  6
HIDDEN2
100
AcDbLine
 10
-7.261363
 20
-5.929455
 30
0.0
 11
-7.261363
 21
-5.179455
 31
0.0
  0
LINE
  5
10E
100
AcDbEntity
  8
HIDDEN_LINE
  6
HIDDEN2
100
AcDbLine
 10
-7.604363
 20
-5.929455
 30
0.0
 11
-7.604363
 21
-5.179455
 31
0.0
  0
LINE
  5
10F
100
AcDbEntity
  8
HIDDEN_LINE
  6
HIDDEN2
100
AcDbLine
 10
-7.292363
 20
-5.929455
 30
0.0
 11
-7.292363
 21
-5.179455
 31
0.0
  0
LINE
  5
110
100
AcDbEntity
  8
0
100
AcDbLine
 10
-7.885863
 20
-5.929455
 30
0.0
 11
-7.885863
 21
-5.272455
 31
0.0
  0
ARC
  5
111
100
AcDbEntity
  8
0
100
AcDbCircle
 10
-7.792863
 20
-5.272455
 30
0.0
 40
0.093
100
AcDbArc
 50
90.0
 51
180.0
  0
ARC
  5
112
100
AcDbEntity
  8
0
100
AcDbCircle
 10
-7.791363
 20
-5.086455
 30
0.0
 40
0.093
100
AcDbArc
 50
270.0
 51
0.0
  0
LINE
  5
113
100
AcDbEntity
  8
0
100
AcDbLine
 10
-7.792863
 20
-5.179455
 30
0.0
 11
-7.791363
 21
-5.179455
 31
0.0
  0
ARC
  5
114
100
AcDbEntity
  8
0
100
AcDbCircle
 10
-6.791363
 20
-5.086455
 30
0.0
 40
0.093
100
AcDbArc
 50
270.0
 51
0.0
  0
ARC
  5
115
100
AcDbEntity
  8
0
100
AcDbCircle
 10
-5.105363
 20
-5.086455
 30
0.0
 40
0.093
100
AcDbArc
 50
180.0
 51
270.0
  0
LINE
  5
116
100
AcDbEntity
  8
CTR_LINES
100
AcDbLine
 10
-8.348191
 20
-2.679455
 30
0.0
 11
-6.991343
 21
-2.679455
 31
0.0
  0
LINE
  5
117
100
AcDbEntity
  8
0
100
AcDbLine
 10
-7.698363
 20
-3.179455
 30
0.0
 11
-6.791829
 21
-3.174907
 31
0.0
  0
LINE
  5
118
100
AcDbEntity
  8
CTR_LINES
100
AcDbLine
 10
-8.348191
 20
-2.679455
 30
0.0
 11
-6.991343
 21
-2.679455
 31
0.0
  0
LINE
  5
119
100
AcDbEntity
  8
0
100
AcDbLine
 10
-7.698363
 20
-3.359592
 30
0.0
 11
-7.698363
 21
-3.265117
 31
0.0
  0
CIRCLE
  5
11A
100
AcDbEntity
  8
0
100
AcDbCircle
 10
-7.694683
 20
-2.679455
 30
0.0
 40
0.195
  0
LINE
  5
11B
100
AcDbEntity
  8
CTR_LINES
100
AcDbLine
 10
-7.694683
 20
-3.041188
 30
0.0
 11
-7.694683
 21
-2.354712
 31
0.0
  0
LINE
  5
11C
100
AcDbEntity
  8
0
100
AcDbLine
 10
-7.776778
 20
-3.173268
 30
0.0
 11
-7.804852
 21
-3.162536
 31
0.0
  0
ARC
  5
11D
100
AcDbEntity
  8
0
100
AcDbCircle
 10
-7.791363
 20
-3.265117
 30
0.0
 40
0.093
100
AcDbArc
 50
0.0
 51
80.977073
  0
LINE
  5
11E
100
AcDbEntity
  8
0
100
AcDbLine
 10
-6.698363
 20
-4.054455
 30
0.0
 11
-5.198363
 21
-4.054455
 31
0.0
  0
ARC
  5
11F
100
AcDbEntity
  8
0
100
AcDbCircle
 10
-6.791363
 20
-3.267905
 30
0.0
 40
0.093
100
AcDbArc
 50
0.0
 51
90.287487
  0
ARC
  5
120
100
AcDbEntity
  8
0
100
AcDbCircle
 10
-5.138363
 20
-3.246136
 30
0.0
 40
0.06
100
AcDbArc
 50
90.0
 51
180.0
  0
LINE
  5
121
100
AcDbEntity
  8
0
100
AcDbLine
 10
-4.198363
 20
-3.265117
 30
0.0
 11
-4.198363
 21
-5.086461
 31
0.0
  0
LINE
  5
122
100
AcDbEntity
  8
HIDDEN_LINE
  6
HIDDEN2
100
AcDbLine
 10
-4.635363
 20
-5.929455
 30
0.0
 11
-4.635363
 21
-5.179455
 31
0.0
  0
LINE
  5
123
100
AcDbEntity
  8
HIDDEN_LINE
  6
HIDDEN2
100
AcDbLine
 10
-4.261363
 20
-5.929455
 30
0.0
 11
-4.261363
 21
-5.179455
 31
0.0
  0
LINE
  5
124
100
AcDbEntity
  8
HIDDEN_LINE
  6
HIDDEN2
100
AcDbLine
 10
-4.604363
 20
-5.929455
 30
0.0
 11
-4.604363
 21
-5.179455
 31
0.0
  0
LINE
  5
125
100
AcDbEntity
  8
HIDDEN_LINE
  6
HIDDEN2
100
AcDbLine
 10
-4.292363
 20
-5.929455
 30
0.0
 11
-4.292363
 21
-5.179455
 31
0.0
  0
LINE
  5
126
100
AcDbEntity
  8
0
100
AcDbLine
 10
-4.010863
 20
-5.929455
 30
0.0
 11
-4.010863
 21
-5.272455
 31
0.0
  0
ARC
  5
127
100
AcDbEntity
  8
0
100
AcDbCircle
 10
-4.103863
 20
-5.272455
 30
0.0
 40
0.093
100
AcDbArc
 50
0.0
 51
90.462068
  0
ARC
  5
128
100
AcDbEntity
  8
0
100
AcDbCircle
 10
-4.105363
 20
-5.086461
 30
0.0
 40
0.093
100
AcDbArc
 50
180.0
 51
270.462068
  0
LINE
  5
129
100
AcDbEntity
  8
0
100
AcDbLine
 10
-4.198363
 20
-5.179455
 30
0.0
 11
-4.103863
 21
-5.179455
 31
0.0
  0
CIRCLE
  5
12A
100
AcDbEntity
  8
0
100
AcDbCircle
 10
-4.198363
 20
-2.679455
 30
0.0
 40
0.195
  0
LINE
  5
12B
100
AcDbEntity
  8
CTR_LINES
100
AcDbLine
 10
-4.837616
 20
-2.679455
 30
0.0
 11
-3.523843
 21
-2.679455
 31
0.0
  0
LINE
  5
12C
100
AcDbEntity
  8
CTR_LINES
100
AcDbLine
 10
-4.837616
 20
-2.679455
 30
0.0
 11
-3.523843
 21
-2.679455
 31
0.0
  0
LINE
  5
12D
100
AcDbEntity
  8
CTR_LINES
100
AcDbLine
 10
-4.198363
 20
-3.00903
 30
0.0
 11
-4.198363
 21
-2.353757
 31
0.0
  0
LINE
  5
12E
100
AcDbEntity
  8
0
100
AcDbLine
 10
-4.119948
 20
-3.173268
 30
0.0
 11
-4.082756
 21
-3.161313
 31
0.0
  0
ARC
  5
12F
100
AcDbEntity
  8
0
100
AcDbCircle
 10
-4.105363
 20
-3.265117
 30
0.0
 40
0.093
100
AcDbArc
 50
99.022927
 51
180.0
  0
LINE
  5
130
100
AcDbEntity
  8
0
100
AcDbLine
 10
1.793123
 20
-5.272455
 30
0.0
 11
1.793123
 21
-4.054455
 31
0.0
  0
LINE
  5
131
100
AcDbEntity
  8
0
100
AcDbLine
 10
2.980123
 20
-5.086455
 30
0.0
 11
2.980123
 21
-3.272455
 31
0.0
  0
LINE
  5
132
100
AcDbEntity
  8
0
100
AcDbLine
 10
1.980123
 20
-5.086455
 30
0.0
 11
1.980123
 21
-3.272455
 31
0.0
  0
LINE
  5
133
100
AcDbEntity
  8
HIDDEN_LINE
  6
HIDDEN2
100
AcDbLine
 10
2.043123
 20
-6.054455
 30
0.0
 11
2.043123
 21
-5.179455
 31
0.0
  0
LINE
  5
134
100
AcDbEntity
  8
HIDDEN_LINE
  6
HIDDEN2
100
AcDbLine
 10
2.417123
 20
-6.054455
 30
0.0
 11
2.417123
 21
-5.179455
 31
0.0
  0
LINE
  5
135
100
AcDbEntity
  8
HIDDEN_LINE
  6
HIDDEN2
100
AcDbLine
 10
2.074123
 20
-6.054455
 30
0.0
 11
2.074123
 21
-5.179455
 31
0.0
  0
LINE
  5
136
100
AcDbEntity
  8
HIDDEN_LINE
  6
HIDDEN2
100
AcDbLine
 10
2.386123
 20
-6.054455
 30
0.0
 11
2.386123
 21
-5.179455
 31
0.0
  0
LINE
  5
137
100
AcDbEntity
  8
0
100
AcDbLine
 10
1.793123
 20
-6.054455
 30
0.0
 11
1.793123
 21
-5.272455
 31
0.0
  0
LINE
  5
138
100
AcDbEntity
  8
0
100
AcDbLine
 10
1.886123
 20
-5.179455
 30
0.0
 11
2.762123
 21
-5.179455
 31
0.0
  0
ARC
  5
139
100
AcDbEntity
  8
0
100
AcDbCircle
 10
1.887123
 20
-5.086455
 30
0.0
 40
0.093
100
AcDbArc
 50
270.0
 51
0.0
  0
ARC
  5
13A
100
AcDbEntity
  8
0
100
AcDbCircle
 10
1.886123
 20
-5.272455
 30
0.0
 40
0.093
100
AcDbArc
 50
90.0
 51
180.0
  0
LINE
  5
13B
100
AcDbEntity
  8
0
100
AcDbLine
 10
1.886123
 20
-5.179455
 30
0.0
 11
1.887123
 21
-5.179455
 31
0.0
  0
ARC
  5
13C
100
AcDbEntity
  8
0
100
AcDbCircle
 10
2.887123
 20
-5.086455
 30
0.0
 40
0.093
100
AcDbArc
 50
270.0
 51
360.0
  0
LINE
  5
13D
100
AcDbEntity
  8
0
100
AcDbLine
 10
2.762123
 20
-5.179455
 30
0.0
 11
2.887123
 21
-5.179455
 31
0.0
  0
ARC
  5
13E
100
AcDbEntity
  8
0
100
AcDbCircle
 10
1.887123
 20
-3.961455
 30
0.0
 40
0.093
100
AcDbArc
 50
270.0
 51
0.0
  0
LINE
  5
13F
100
AcDbEntity
  8
0
100
AcDbLine
 10
1.793123
 20
-4.054455
 30
0.0
 11
1.887123
 21
-4.054455
 31
0.0
  0
LINE
  5
140
100
AcDbEntity
  8
0
100
AcDbLine
 10
1.887123
 20
-3.179455
 30
0.0
 11
2.887123
 21
-3.179455
 31
0.0
  0
ARC
  5
141
100
AcDbEntity
  8
0
100
AcDbCircle
 10
1.887123
 20
-3.272455
 30
0.0
 40
0.093
100
AcDbArc
 50
0.0
 51
90.0
  0
LINE
  5
142
100
AcDbEntity
  8
0
100
AcDbLine
 10
1.730123
 20
-3.179455
 30
0.0
 11
1.887123
 21
-3.179455
 31
0.0
  0
ARC
  5
143
100
AcDbEntity
  8
0
100
AcDbCircle
 10
2.887123
 20
-3.272455
 30
0.0
 40
0.093
100
AcDbArc
 50
0.0
 51
90.0
  0
LINE
  5
144
100
AcDbEntity
  8
0
100
AcDbLine
 10
2.762123
 20
-3.179455
 30
0.0
 11
2.980123
 21
-3.179455
 31
0.0
  0
DIMENSION
  5
145
100
AcDbEntity
  8
DIMS_TEXT
100
AcDbDimension
  2
*D12
 10
-2.187639
 20
0.070545
 30
0.0
 11
-2.187639
 21
1.007968
 31
0.0
 12
-10.052715
 22
-9.423375
 32
0.0
 70
   128
  1
1.750
  3
STANDARD
100
AcDbAlignedDimension
 13
-5.753363
 23
1.820545
 33
0.0
 14
-2.510863
 24
0.070545
 34
0.0
 50
90.0
100
AcDbRotatedDimension
1001
ACAD
1000
DSTYLE
1002
{
1070
    78
1070
     4
1070
   288
1070
     1
1070
   284
1070
     4
1070
   140
1040
0.15
1070
   272
1070
     0
1070
   271
1070
     2
1002
}
  0
DIMENSION
  5
146
100
AcDbEntity
  8
DIMS_TEXT
100
AcDbDimension
  2
*D7
 10
-6.020087
 20
1.639214
 30
0.0
 11
-4.27191
 21
4.824404
 31
0.0
 12
-10.052715
 22
-9.423375
 32
0.0
 70
   131
  1
%%C
  3
STANDARD
100
AcDbDiametricDimension
 15
-5.876639
 25
2.001875
 35
0.0
 40
0.0
1001
ACAD
1000
DSTYLE
1002
{
1070
    78
1070
     4
1070
   288
1070
     1
1070
   284
1070
     4
1070
   140
1040
0.15
1070
   272
1070
     0
1070
   271
1070
     2
1002
}
  0
DIMENSION
  5
147
100
AcDbEntity
  8
DIMS_TEXT
100
AcDbDimension
  2
*D4
 10
-2.698363
 20
3.394949
 30
0.0
 11
-5.954109
 21
3.394949
 31
0.0
 12
-10.052715
 22
-9.423375
 32
0.0
 70
   128
  1
\L6.503\P\l6.497
  3
STANDARD
100
AcDbAlignedDimension
 13
-9.198363
 23
2.008045
 33
0.0
 14
-2.698363
 24
2.008045
 34
0.0
100
AcDbRotatedDimension
1001
ACAD
1000
DSTYLE
1002
{
1070
    78
1070
     4
1070
   284
1070
     4
1070
   140
1040
0.15
1070
   172
1070
     1
1070
   272
1070
     0
1070
    40
1040
1.086872
1070
   271
1070
     2
1002
}
  0
TEXT
  5
148
100
AcDbEntity
  8
0
  6
DASHED2
100
AcDbText
 10
-9.028484
 20
0.207847
 30
0.0
 40
0.5
  1
M I T R P A K
 72
     4
 11
-5.945151
 21
0.457847
 31
0.0
100
AcDbText
  0
LINE
  5
149
100
AcDbEntity
  8
0
100
AcDbLine
 10
-5.362701
 20
1.820545
 30
0.0
 11
-3.541363
 21
1.820545
 31
0.0
  0
LINE
  5
14A
100
AcDbEntity
  8
0
100
AcDbLine
 10
-5.362701
 20
1.820545
 30
0.0
 11
-3.541363
 21
1.820545
 31
0.0
  0
LINE
  5
14B
100
AcDbEntity
  8
0
100
AcDbLine
 10
-5.355363
 20
0.820545
 30
0.0
 11
-3.541363
 21
0.820545
 31
0.0
  0
LINE
  5
14C
100
AcDbEntity
  8
0
  6
CONTINUOUS
100
AcDbLine
 10
-5.105363
 20
-1.179455
 30
0.0
 11
-3.541363
 21
-1.179455
 31
0.0
  0
LINE
  5
14D
100
AcDbEntity
  8
0
100
AcDbLine
 10
-5.105363
 20
-2.179455
 30
0.0
 11
-4.198363
 21
-2.179455
 31
0.0
  0
DIMENSION
  5
14E
100
AcDbEntity
  8
DIMS_TEXT
100
AcDbDimension
  2
*D3
 10
-5.948363
 20
2.866703
 30
0.0
 11
-7.573363
 21
2.866703
 31
0.0
 12
-10.052715
 22
-9.423375
 32
0.0
  1
3.250
  3
STANDARD
100
AcDbAlignedDimension
 13
-9.198363
 23
2.008045
 33
0.0
 14
-5.948363
 24
2.320545
 34
0.0
100
AcDbRotatedDimension
1001
ACAD
1000
DSTYLE
1002
{
1070
    78
1070
     4
1070
   284
1070
     4
1070
   140
1040
0.15
1070
   172
1070
     1
1070
   272
1070
     0
1070
    40
1040
1.086872
1070
   271
1070
     2
1002
}
  0
CIRCLE
  5
14F
100
AcDbEntity
  8
HIDDEN_LINE
  6
HIDDEN2
100
AcDbCircle
 10
-5.948363
 20
0.070545
 30
0.0
 40
0.2
  0
CIRCLE
  5
150
100
AcDbEntity
  8
HIDDEN_LINE
  6
HIDDEN2
100
AcDbCircle
 10
-5.948363
 20
0.070545
 30
0.0
 40
0.1685
  0
LINE
  5
151
100
AcDbEntity
  8
0
100
AcDbLine
 10
-9.198363
 20
-1.866955
 30
0.0
 11
-9.198363
 21
2.008045
 31
0.0
  0
CIRCLE
  5
152
100
AcDbEntity
  8
HIDDEN_LINE
  6
HIDDEN2
100
AcDbCircle
 10
-5.948363
 20
0.070545
 30
0.0
 40
0.4375
  0
LINE
  5
153
100
AcDbEntity
  8
0
100
AcDbLine
 10
-8.448363
 20
-1.272455
 30
0.0
 11
-8.448363
 21
0.913545
 31
0.0
  0
LINE
  5
154
100
AcDbEntity
  8
0
100
AcDbLine
 10
-7.698363
 20
-2.179455
 30
0.0
 11
-6.791363
 21
-2.179455
 31
0.0
  0
LINE
  5
155
100
AcDbEntity
  8
0
  6
CONTINUOUS
100
AcDbLine
 10
-8.355363
 20
-1.179455
 30
0.0
 11
-6.791363
 21
-1.179455
 31
0.0
  0
LINE
  5
156
100
AcDbEntity
  8
0
100
AcDbLine
 10
-8.355363
 20
-1.679455
 30
0.0
 11
-7.791363
 21
-1.679455
 31
0.0
  0
LINE
  5
157
100
AcDbEntity
  8
0
100
AcDbLine
 10
-8.448363
 20
-1.513837
 30
0.0
 11
-8.448363
 21
-1.773955
 31
0.0
  0
LINE
  5
158
100
AcDbEntity
  8
0
100
AcDbLine
 10
-9.198363
 20
-1.866955
 30
0.0
 11
-8.541363
 21
-1.866955
 31
0.0
  0
ARC
  5
159
100
AcDbEntity
  8
0
100
AcDbCircle
 10
-8.541363
 20
-1.773955
 30
0.0
 40
0.093
100
AcDbArc
 50
270.0
 51
360.0
  0
ARC
  5
15A
100
AcDbEntity
  8
0
100
AcDbCircle
 10
-8.355363
 20
-1.772455
 30
0.0
 40
0.093
100
AcDbArc
 50
90.0
 51
180.0
  0
LINE
  5
15B
100
AcDbEntity
  8
0
100
AcDbLine
 10
-8.448363
 20
-1.773955
 30
0.0
 11
-8.448363
 21
-1.772455
 31
0.0
  0
LINE
  5
15C
100
AcDbEntity
  8
HIDDEN_LINE
  6
HIDDEN2
100
AcDbLine
 10
-9.198363
 20
-1.616455
 30
0.0
 11
-8.448363
 21
-1.616455
 31
0.0
  0
LINE
  5
15D
100
AcDbEntity
  8
HIDDEN_LINE
  6
HIDDEN2
100
AcDbLine
 10
-9.198363
 20
-1.242455
 30
0.0
 11
-8.448363
 21
-1.242455
 31
0.0
  0
LINE
  5
15E
100
AcDbEntity
  8
HIDDEN_LINE
  6
HIDDEN2
100
AcDbLine
 10
-9.198363
 20
-1.585455
 30
0.0
 11
-8.448363
 21
-1.585455
 31
0.0
  0
LINE
  5
15F
100
AcDbEntity
  8
HIDDEN_LINE
  6
HIDDEN2
100
AcDbLine
 10
-9.198363
 20
-1.273455
 30
0.0
 11
-8.448363
 21
-1.273455
 31
0.0
  0
LINE
  5
160
100
AcDbEntity
  8
0
100
AcDbLine
 10
-8.448363
 20
-1.272455
 30
0.0
 11
-8.448363
 21
-1.401979
 31
0.0
  0
LINE
  5
161
100
AcDbEntity
  8
0
100
AcDbLine
 10
-8.448363
 20
-1.513837
 30
0.0
 11
-8.448363
 21
-1.401979
 31
0.0
  0
ARC
  5
162
100
AcDbEntity
  8
0
100
AcDbCircle
 10
-8.355363
 20
-1.272455
 30
0.0
 40
0.093
100
AcDbArc
 50
90.0
 51
180.0
  0
LINE
  5
163
100
AcDbEntity
  8
0
100
AcDbLine
 10
-7.698363
 20
-2.093793
 30
0.0
 11
-7.698363
 21
-1.772455
 31
0.0
  0
LINE
  5
164
100
AcDbEntity
  8
CTR_LINES
100
AcDbLine
 10
-7.698363
 20
-2.093793
 30
0.0
 11
-7.698363
 21
-1.772455
 31
0.0
  0
ARC
  5
165
100
AcDbEntity
  8
0
100
AcDbCircle
 10
-7.791363
 20
-1.772455
 30
0.0
 40
0.093
100
AcDbArc
 50
0.0
 51
90.0
  0
LINE
  5
166
100
AcDbEntity
  8
0
100
AcDbLine
 10
-6.698363
 20
-1.679455
 30
0.0
 11
-6.698363
 21
-1.401979
 31
0.0
  0
LINE
  5
167
100
AcDbEntity
  8
0
100
AcDbLine
 10
-6.698363
 20
-1.679455
 30
0.0
 11
-6.698363
 21
-1.573314
 31
0.0
  0
LINE
  5
168
100
AcDbEntity
  8
0
100
AcDbLine
 10
-6.698363
 20
-1.679455
 30
0.0
 11
-6.698363
 21
-1.573314
 31
0.0
  0
LINE
  5
169
100
AcDbEntity
  8
0
100
AcDbLine
 10
-6.698363
 20
-2.086455
 30
0.0
 11
-6.698363
 21
-1.772455
 31
0.0
  0
LINE
  5
16A
100
AcDbEntity
  8
0
100
AcDbLine
 10
-6.698363
 20
-1.772455
 30
0.0
 11
-6.698363
 21
-1.679455
 31
0.0
  0
LINE
  5
16B
100
AcDbEntity
  8
0
100
AcDbLine
 10
-6.698363
 20
-1.272455
 30
0.0
 11
-6.698363
 21
-1.401979
 31
0.0
  0
ARC
  5
16C
100
AcDbEntity
  8
0
100
AcDbCircle
 10
-6.791363
 20
-1.272455
 30
0.0
 40
0.093
100
AcDbArc
 50
0.0
 51
90.0
  0
LINE
  5
16D
100
AcDbEntity
  8
0
100
AcDbLine
 10
-5.198363
 20
-1.772455
 30
0.0
 11
-5.198363
 21
-1.538692
 31
0.0
  0
LINE
  5
16E
100
AcDbEntity
  8
0
100
AcDbLine
 10
-5.198363
 20
-2.086455
 30
0.0
 11
-5.198363
 21
-1.772455
 31
0.0
  0
LINE
  5
16F
100
AcDbEntity
  8
0
100
AcDbLine
 10
-5.198363
 20
-1.272455
 30
0.0
 11
-5.198363
 21
-1.38466
 31
0.0
  0
LINE
  5
170
100
AcDbEntity
  8
0
100
AcDbLine
 10
-5.198363
 20
-1.538692
 30
0.0
 11
-5.198363
 21
-1.38466
 31
0.0
  0
ARC
  5
171
100
AcDbEntity
  8
0
100
AcDbCircle
 10
-5.105363
 20
-1.272455
 30
0.0
 40
0.093
100
AcDbArc
 50
90.0
 51
180.0
  0
LINE
  5
172
100
AcDbEntity
  8
0
100
AcDbLine
 10
-8.355363
 20
1.820545
 30
0.0
 11
-6.534025
 21
1.820545
 31
0.0
  0
LINE
  5
173
100
AcDbEntity
  8
0
100
AcDbLine
 10
-8.355363
 20
0.820545
 30
0.0
 11
-6.541363
 21
0.820545
 31
0.0
  0
LINE
  5
174
100
AcDbEntity
  8
0
100
AcDbLine
 10
-8.448363
 20
0.913545
 30
0.0
 11
-8.448363
 21
1.913545
 31
0.0
  0
ARC
  5
175
100
AcDbEntity
  8
0
100
AcDbCircle
 10
-8.355363
 20
0.913545
 30
0.0
 40
0.093
100
AcDbArc
 50
180.0
 51
270.0
  0
LINE
  5
176
100
AcDbEntity
  8
HIDDEN_LINE
  6
HIDDEN2
100
AcDbLine
 10
-9.198363
 20
1.383545
 30
0.0
 11
-8.448363
 21
1.383545
 31
0.0
  0
LINE
  5
177
100
AcDbEntity
  8
HIDDEN_LINE
  6
HIDDEN2
100
AcDbLine
 10
-9.198363
 20
1.757545
 30
0.0
 11
-8.448363
 21
1.757545
 31
0.0
  0
LINE
  5
178
100
AcDbEntity
  8
HIDDEN_LINE
  6
HIDDEN2
100
AcDbLine
 10
-9.198363
 20
1.414545
 30
0.0
 11
-8.448363
 21
1.414545
 31
0.0
  0
LINE
  5
179
100
AcDbEntity
  8
HIDDEN_LINE
  6
HIDDEN2
100
AcDbLine
 10
-9.198363
 20
1.726545
 30
0.0
 11
-8.448363
 21
1.726545
 31
0.0
  0
LINE
  5
17A
100
AcDbEntity
  8
0
100
AcDbLine
 10
-9.198363
 20
2.008045
 30
0.0
 11
-8.541363
 21
2.008045
 31
0.0
  0
ARC
  5
17B
100
AcDbEntity
  8
0
100
AcDbCircle
 10
-8.541363
 20
1.915045
 30
0.0
 40
0.093
100
AcDbArc
 50
0.0
 51
90.0
  0
ARC
  5
17C
100
AcDbEntity
  8
0
100
AcDbCircle
 10
-8.355363
 20
1.913545
 30
0.0
 40
0.093
100
AcDbArc
 50
180.0
 51
270.0
  0
LINE
  5
17D
100
AcDbEntity
  8
0
100
AcDbLine
 10
-8.448363
 20
1.915045
 30
0.0
 11
-8.448363
 21
1.913545
 31
0.0
  0
LINE
  5
17E
100
AcDbEntity
  8
0
100
AcDbLine
 10
-6.448363
 20
1.820545
 30
0.0
 11
-6.448363
 21
0.913545
 31
0.0
  0
LINE
  5
17F
100
AcDbEntity
  8
0
100
AcDbLine
 10
-5.448363
 20
1.820545
 30
0.0
 11
-5.448363
 21
0.913545
 31
0.0
  0
ARC
  5
180
100
AcDbEntity
  8
0
100
AcDbCircle
 10
-6.541363
 20
0.913545
 30
0.0
 40
0.093
100
AcDbArc
 50
270.0
 51
0.0
  0
ARC
  5
181
100
AcDbEntity
  8
0
100
AcDbCircle
 10
-5.355363
 20
0.913545
 30
0.0
 40
0.093
100
AcDbArc
 50
180.0
 51
270.0
  0
CIRCLE
  5
182
100
AcDbEntity
  8
0
100
AcDbCircle
 10
-5.948363
 20
1.820545
 30
0.0
 40
0.195
  0
LINE
  5
183
100
AcDbEntity
  8
CTR_LINES
  6
CENTER
100
AcDbLine
 10
-6.310866
 20
1.820545
 30
0.0
 11
-5.660766
 21
1.820545
 31
0.0
  0
CIRCLE
  5
184
100
AcDbEntity
  8
0
100
AcDbCircle
 10
-5.948363
 20
1.820545
 30
0.0
 40
0.5
  0
LINE
  5
185
100
AcDbEntity
  8
0
  6
DASHED2
100
AcDbLine
 10
-6.448363
 20
1.820545
 30
0.0
 11
-6.442176
 21
1.89896
 31
0.0
  0
ARC
  5
186
100
AcDbEntity
  8
0
  6
DASHED2
100
AcDbCircle
 10
-6.534025
 20
1.913545
 30
0.0
 40
0.093
100
AcDbArc
 50
270.0
 51
350.977073
  0
ARC
  5
187
100
AcDbEntity
  8
0
  6
DASHED2
100
AcDbCircle
 10
-5.362701
 20
1.913545
 30
0.0
 40
0.093
100
AcDbArc
 50
189.022927
 51
270.0
  0
LINE
  5
188
100
AcDbEntity
  8
0
100
AcDbLine
 10
-2.698363
 20
-1.866955
 30
0.0
 11
-2.698363
 21
2.008045
 31
0.0
  0
LINE
  5
189
100
AcDbEntity
  8
0
100
AcDbLine
 10
-3.448363
 20
-1.272455
 30
0.0
 11
-3.448363
 21
0.913545
 31
0.0
  0
LINE
  5
18A
100
AcDbEntity
  8
HIDDEN_LINE
  6
HIDDEN2
100
AcDbLine
 10
-3.448363
 20
-1.273455
 30
0.0
 11
-2.698363
 21
-1.273455
 31
0.0
  0
LINE
  5
18B
100
AcDbEntity
  8
HIDDEN_LINE
  6
HIDDEN2
100
AcDbLine
 10
-3.448363
 20
-1.242455
 30
0.0
 11
-2.698363
 21
-1.242455
 31
0.0
  0
LINE
  5
18C
100
AcDbEntity
  8
HIDDEN_LINE
  6
HIDDEN2
100
AcDbLine
 10
-3.448363
 20
-1.585455
 30
0.0
 11
-2.698363
 21
-1.585455
 31
0.0
  0
LINE
  5
18D
100
AcDbEntity
  8
HIDDEN_LINE
  6
HIDDEN2
100
AcDbLine
 10
-3.448363
 20
-1.616455
 30
0.0
 11
-2.698363
 21
-1.616455
 31
0.0
  0
LINE
  5
18E
100
AcDbEntity
  8
0
100
AcDbLine
 10
-3.355363
 20
-1.866955
 30
0.0
 11
-2.698363
 21
-1.866955
 31
0.0
  0
LINE
  5
18F
100
AcDbEntity
  8
0
100
AcDbLine
 10
-4.105363
 20
-1.679455
 30
0.0
 11
-3.541363
 21
-1.679455
 31
0.0
  0
LINE
  5
190
100
AcDbEntity
  8
0
100
AcDbLine
 10
-4.198363
 20
-2.093793
 30
0.0
 11
-4.198363
 21
-1.772455
 31
0.0
  0
ARC
  5
191
100
AcDbEntity
  8
0
100
AcDbCircle
 10
-4.105363
 20
-1.772455
 30
0.0
 40
0.093
100
AcDbArc
 50
90.0
 51
180.0
  0
LINE
  5
192
100
AcDbEntity
  8
0
100
AcDbLine
 10
-3.448363
 20
-1.772455
 30
0.0
 11
-3.448363
 21
-1.513837
 31
0.0
  0
ARC
  5
193
100
AcDbEntity
  8
0
100
AcDbCircle
 10
-3.541363
 20
-1.772455
 30
0.0
 40
0.093
100
AcDbArc
 50
0.0
 51
90.0
  0
ARC
  5
194
100
AcDbEntity
  8
0
100
AcDbCircle
 10
-3.355363
 20
-1.773955
 30
0.0
 40
0.093
100
AcDbArc
 50
180.0
 51
270.0
  0
LINE
  5
195
100
AcDbEntity
  8
0
100
AcDbLine
 10
-3.448363
 20
-1.773955
 30
0.0
 11
-3.448363
 21
-1.772455
 31
0.0
  0
ARC
  5
196
100
AcDbEntity
  8
0
100
AcDbCircle
 10
-3.541363
 20
-1.272455
 30
0.0
 40
0.093
100
AcDbArc
 50
0.0
 51
90.0
  0
LINE
  5
197
100
AcDbEntity
  8
0
100
AcDbLine
 10
-3.448363
 20
-1.401979
 30
0.0
 11
-3.448363
 21
-1.272455
 31
0.0
  0
LINE
  5
198
100
AcDbEntity
  8
0
100
AcDbLine
 10
-3.448363
 20
-1.513837
 30
0.0
 11
-3.448363
 21
-1.401979
 31
0.0
  0
LINE
  5
199
100
AcDbEntity
  8
HIDDEN_LINE
  6
HIDDEN2
100
AcDbLine
 10
-3.448363
 20
1.726545
 30
0.0
 11
-2.698363
 21
1.726545
 31
0.0
  0
LINE
  5
19A
100
AcDbEntity
  8
HIDDEN_LINE
  6
HIDDEN2
100
AcDbLine
 10
-3.448363
 20
1.757545
 30
0.0
 11
-2.698363
 21
1.757545
 31
0.0
  0
LINE
  5
19B
100
AcDbEntity
  8
HIDDEN_LINE
  6
HIDDEN2
100
AcDbLine
 10
-3.448363
 20
1.383545
 30
0.0
 11
-2.698363
 21
1.383545
 31
0.0
  0
LINE
  5
19C
100
AcDbEntity
  8
HIDDEN_LINE
  6
HIDDEN2
100
AcDbLine
 10
-3.448363
 20
1.414545
 30
0.0
 11
-2.698363
 21
1.414545
 31
0.0
  0
LINE
  5
19D
100
AcDbEntity
  8
0
100
AcDbLine
 10
-3.355363
 20
2.008045
 30
0.0
 11
-2.698363
 21
2.008045
 31
0.0
  0
LINE
  5
19E
100
AcDbEntity
  8
0
100
AcDbLine
 10
-3.448363
 20
0.913545
 30
0.0
 11
-3.448363
 21
1.913545
 31
0.0
  0
ARC
  5
19F
100
AcDbEntity
  8
0
100
AcDbCircle
 10
-3.541363
 20
0.913545
 30
0.0
 40
0.093
100
AcDbArc
 50
270.0
 51
0.0
  0
ARC
  5
1A0
100
AcDbEntity
  8
0
100
AcDbCircle
 10
-3.541363
 20
1.913545
 30
0.0
 40
0.093
100
AcDbArc
 50
270.0
 51
0.0
  0
ARC
  5
1A1
100
AcDbEntity
  8
0
100
AcDbCircle
 10
-3.355363
 20
1.915045
 30
0.0
 40
0.093
100
AcDbArc
 50
90.0
 51
180.0
  0
LINE
  5
1A2
100
AcDbEntity
  8
0
100
AcDbLine
 10
-3.448363
 20
1.913545
 30
0.0
 11
-3.448363
 21
1.915045
 31
0.0
  0
LINE
  5
1A3
100
AcDbEntity
  8
HIDDEN_LINE
  6
HIDDEN2
100
AcDbLine
 10
1.980123
 20
-1.086455
 30
0.0
 11
1.980123
 21
0.103545
 31
0.0
  0
LINE
  5
1A4
100
AcDbEntity
  8
0
100
AcDbLine
 10
1.792623
 20
-1.429955
 30
0.0
 11
1.792623
 21
1.571045
 31
0.0
  0
CIRCLE
  5
1A5
100
AcDbEntity
  8
HIDDEN_LINE
  6
HIDDEN2
100
AcDbCircle
 10
2.230123
 20
-1.429455
 30
0.0
 40
0.1875
  0
CIRCLE
  5
1A6
100
AcDbEntity
  8
0
100
AcDbCircle
 10
2.230123
 20
-1.429455
 30
0.0
 40
0.156
  0
LINE
  5
1A7
100
AcDbEntity
  8
HIDDEN_LINE
  6
HIDDEN2
100
AcDbLine
 10
2.073123
 20
-1.179455
 30
0.0
 11
2.45527
 21
-1.179455
 31
0.0
  0
LINE
  5
1A8
100
AcDbEntity
  8
0
100
AcDbLine
 10
1.887123
 20
-2.179455
 30
0.0
 11
2.762123
 21
-2.179455
 31
0.0
  0
ARC
  5
1A9
100
AcDbEntity
  8
0
100
AcDbCircle
 10
2.229623
 20
-1.429955
 30
0.0
 40
0.437
100
AcDbArc
 50
180.0
 51
270.0
  0
LINE
  5
1AA
100
AcDbEntity
  8
HIDDEN_LINE
  6
HIDDEN2
100
AcDbLine
 10
1.980123
 20
-1.788729
 30
0.0
 11
1.980123
 21
-1.086455
 31
0.0
  0
LINE
  5
1AB
100
AcDbEntity
  8
0
  6
DASHED2
100
AcDbLine
 10
1.980123
 20
-2.086455
 30
0.0
 11
1.980123
 21
-1.788729
 31
0.0
  0
LINE
  5
1AC
100
AcDbEntity
  8
0
100
AcDbLine
 10
1.980123
 20
-2.086455
 30
0.0
 11
1.980123
 21
-1.788729
 31
0.0
  0
LINE
  5
1AD
100
AcDbEntity
  8
0
100
AcDbLine
 10
1.730123
 20
-2.179455
 30
0.0
 11
1.887123
 21
-2.179455
 31
0.0
  0
ARC
  5
1AE
100
AcDbEntity
  8
HIDDEN_LINE
  6
HIDDEN2
100
AcDbCircle
 10
2.073123
 20
-1.086455
 30
0.0
 40
0.093
100
AcDbArc
 50
180.0
 51
270.0
  0
LINE
  5
1AF
100
AcDbEntity
  8
HIDDEN_LINE
  6
HIDDEN2
100
AcDbLine
 10
2.497696
 20
-1.197029
 30
0.0
 11
2.980123
 21
-1.679455
 31
0.0
  0
LINE
  5
1B0
100
AcDbEntity
  8
0
100
AcDbLine
 10
2.980123
 20
-2.086455
 30
0.0
 11
2.980123
 21
-1.866955
 31
0.0
  0
LINE
  5
1B1
100
AcDbEntity
  8
0
100
AcDbLine
 10
2.762123
 20
-2.179455
 30
0.0
 11
2.887123
 21
-2.179455
 31
0.0
  0
LINE
  5
1B2
100
AcDbEntity
  8
HIDDEN_LINE
  6
HIDDEN2
100
AcDbLine
 10
2.980123
 20
-1.866955
 30
0.0
 11
2.980123
 21
-1.679455
 31
0.0
  0
ARC
  5
1B3
100
AcDbEntity
  8
HIDDEN_LINE
  6
HIDDEN2
100
AcDbCircle
 10
2.45527
 20
-1.239455
 30
0.0
 40
0.06
100
AcDbArc
 50
45.0
 51
90.0
  0
ARC
  5
1B4
100
AcDbEntity
  8
0
  6
DASHED2
100
AcDbCircle
 10
2.441601
 20
-1.272455
 30
0.0
 40
0.093
100
AcDbArc
 50
45.0
 51
90.0
  0
ARC
  5
1B5
100
AcDbEntity
  8
0
  6
DASHED2
100
AcDbCircle
 10
2.441601
 20
-1.272455
 30
0.0
 40
0.093
100
AcDbArc
 50
45.0
 51
90.0
  0
LINE
  5
1B6
100
AcDbEntity
  8
HIDDEN_LINE
  6
HIDDEN2
100
AcDbLine
 10
1.980123
 20
0.820545
 30
0.0
 11
1.980123
 21
1.260545
 31
0.0
  0
LINE
  5
1B7
100
AcDbEntity
  8
HIDDEN_LINE
  6
HIDDEN2
100
AcDbLine
 10
1.980123
 20
0.820545
 30
0.0
 11
2.962549
 21
1.802971
 31
0.0
  0
LINE
  5
1B8
100
AcDbEntity
  8
HIDDEN_LINE
  6
HIDDEN2
100
AcDbLine
 10
1.980123
 20
0.103545
 30
0.0
 11
1.980123
 21
0.723545
 31
0.0
  0
LINE
  5
1B9
100
AcDbEntity
  8
HIDDEN_LINE
  6
HIDDEN2
100
AcDbLine
 10
1.918123
 20
0.163545
 30
0.0
 11
1.918123
 21
0.663545
 31
0.0
  0
ARC
  5
1BA
100
AcDbEntity
  8
HIDDEN_LINE
  6
HIDDEN2
100
AcDbCircle
 10
1.920123
 20
0.103545
 30
0.0
 40
0.06
100
AcDbArc
 50
0.0
 51
90.0
  0
LINE
  5
1BB
100
AcDbEntity
  8
0
100
AcDbLine
 10
1.918123
 20
0.163545
 30
0.0
 11
1.920123
 21
0.163545
 31
0.0
  0
ARC
  5
1BC
100
AcDbEntity
  8
HIDDEN_LINE
  6
HIDDEN2
100
AcDbCircle
 10
1.920123
 20
0.723545
 30
0.0
 40
0.06
100
AcDbArc
 50
270.0
 51
0.0
  0
LINE
  5
1BD
100
AcDbEntity
  8
0
100
AcDbLine
 10
1.918123
 20
0.663545
 30
0.0
 11
1.920123
 21
0.663545
 31
0.0
  0
LINE
  5
1BE
100
AcDbEntity
  8
HIDDEN_LINE
  6
HIDDEN2
100
AcDbLine
 10
1.980123
 20
0.723545
 30
0.0
 11
1.980123
 21
0.820545
 31
0.0
  0
CIRCLE
  5
1BF
100
AcDbEntity
  8
HIDDEN_LINE
  6
HIDDEN2
100
AcDbCircle
 10
2.230123
 20
1.570545
 30
0.0
 40
0.1875
  0
CIRCLE
  5
1C0
100
AcDbEntity
  8
0
100
AcDbCircle
 10
2.230123
 20
1.570545
 30
0.0
 40
0.156
  0
ARC
  5
1C1
100
AcDbEntity
  8
0
100
AcDbCircle
 10
2.229623
 20
1.571045
 30
0.0
 40
0.437
100
AcDbArc
 50
90.0
 51
180.0
  0
LINE
  5
1C2
100
AcDbEntity
  8
0
100
AcDbLine
 10
1.730123
 20
1.320545
 30
0.0
 11
1.730123
 21
2.320545
 31
0.0
  0
ARC
  5
1C3
100
AcDbEntity
  8
HIDDEN_LINE
  6
HIDDEN2
100
AcDbCircle
 10
1.920123
 20
1.260545
 30
0.0
 40
0.06
100
AcDbArc
 50
0.0
 51
90.0
  0
LINE
  5
1C4
100
AcDbEntity
  8
HIDDEN_LINE
  6
HIDDEN2
100
AcDbLine
 10
1.792623
 20
1.320545
 30
0.0
 11
1.920123
 21
1.320545
 31
0.0
  0
LINE
  5
1C5
100
AcDbEntity
  8
0
100
AcDbLine
 10
1.730123
 20
1.320545
 30
0.0
 11
1.792623
 21
1.320545
 31
0.0
  0
ARC
  5
1C6
100
AcDbEntity
  8
HIDDEN_LINE
  6
HIDDEN2
100
AcDbCircle
 10
3.004975
 20
1.760545
 30
0.0
 40
0.06
100
AcDbArc
 50
90.0
 51
135.0
  0
TEXT
  5
1C7
100
AcDbEntity
  8
DIMS_TEXT
100
AcDbText
 10
-4.115221
 20
4.604244
 30
0.0
 40
0.15
  1
.388
100
AcDbText
  0
TEXT
  5
1C8
100
AcDbEntity
  8
DIMS_TEXT
100
AcDbText
 10
-4.094415
 20
4.304356
 30
0.0
 40
0.15
  1
(3 PLACES)
100
AcDbText
  0
LINE
  5
1C9
100
AcDbEntity
  8
DIMS_TEXT
100
AcDbLine
 10
-4.136027
 20
4.7828
 30
0.0
 11
-3.719906
 21
4.7828
 31
0.0
  0
TEXT
  5
1CA
100
AcDbEntity
  8
DIMS_TEXT
100
AcDbText
 10
-4.115221
 20
4.845206
 30
0.0
 40
0.15
  1
.393
100
AcDbText
  0
TEXT
  5
1CB
100
AcDbEntity
  8
DIMS_TEXT
100
AcDbText
 10
-3.636682
 20
4.720394
 30
0.0
 40
0.15
  1
THRU
100
AcDbText
  0
TEXT
  5
1CC
100
AcDbEntity
  8
DIMS_TEXT
100
AcDbText
 10
2.970214
 20
4.697906
 30
0.0
 40
0.25
  1
A
100
AcDbText
  0
LINE
  5
1CD
100
AcDbEntity
  8
CTR_LINES
100
AcDbLine
 10
5.230123
 20
-7.331259
 30
0.0
 11
5.230123
 21
2.101061
 31
0.0
  0
LINE
  5
1CE
100
AcDbEntity
  8
0
100
AcDbLine
 10
5.730123
 20
-3.179455
 30
0.0
 11
5.730123
 21
-2.179455
 31
0.0
  0
LINE
  5
1CF
100
AcDbEntity
  8
HIDDEN_LINE
  6
HIDDEN2
100
AcDbLine
 10
5.480123
 20
-3.272455
 30
0.0
 11
5.480123
 21
-2.086455
 31
0.0
  0
ARC
  5
1D0
100
AcDbEntity
  8
0
100
AcDbCircle
 10
4.573123
 20
-2.086455
 30
0.0
 40
0.093
100
AcDbArc
 50
180.0
 51
270.0
  0
ARC
  5
1D1
100
AcDbEntity
  8
0
100
AcDbCircle
 10
5.573123
 20
-2.086455
 30
0.0
 40
0.093
100
AcDbArc
 50
180.0
 51
270.0
  0
LINE
  5
1D2
100
AcDbEntity
  8
CTR_LINES
100
AcDbLine
 10
3.730123
 20
-7.331259
 30
0.0
 11
3.730123
 21
2.101061
 31
0.0
  0
LEADER
  5
1D3
100
AcDbEntity
  8
DIMS_TEXT
100
AcDbLeader
  3
STANDARD
 76
     2
 10
3.296328
 20
-7.326269
 30
0.0
 10
3.732827
 20
-7.326269
 30
0.0
 77
   256
1001
ACAD
1000
DSTYLE
1002
{
1070
    78
1070
     4
1070
   288
1070
     1
1070
   284
1070
     4
1070
   140
1040
0.15
1070
   272
1070
     0
1070
   271
1070
     2
1002
}
  0
LINE
  5
1D4
100
AcDbEntity
  8
0
100
AcDbLine
 10
5.667123
 20
-5.272455
 30
0.0
 11
5.667123
 21
-4.054455
 31
0.0
  0
LINE
  5
1D5
100
AcDbEntity
  8
0
100
AcDbLine
 10
4.480123
 20
-5.086455
 30
0.0
 11
4.480123
 21
-3.272455
 31
0.0
  0
LINE
  5
1D6
100
AcDbEntity
  8
0
100
AcDbLine
 10
5.480123
 20
-5.086455
 30
0.0
 11
5.480123
 21
-3.272455
 31
0.0
  0
LINE
  5
1D7
100
AcDbEntity
  8
0
100
AcDbLine
 10
4.573123
 20
-5.179455
 30
0.0
 11
5.573123
 21
-5.179455
 31
0.0
  0
LINE
  5
1D8
100
AcDbEntity
  8
HIDDEN_LINE
  6
HIDDEN2
100
AcDbLine
 10
5.043123
 20
-6.054455
 30
0.0
 11
5.043123
 21
-5.179455
 31
0.0
  0
LINE
  5
1D9
100
AcDbEntity
  8
HIDDEN_LINE
  6
HIDDEN2
100
AcDbLine
 10
5.074123
 20
-6.054455
 30
0.0
 11
5.074123
 21
-5.179455
 31
0.0
  0
ARC
  5
1DA
100
AcDbEntity
  8
0
100
AcDbCircle
 10
4.573123
 20
-5.086455
 30
0.0
 40
0.093
100
AcDbArc
 50
180.0
 51
270.0
  0
LINE
  5
1DB
100
AcDbEntity
  8
0
100
AcDbLine
 10
4.480123
 20
-5.179455
 30
0.0
 11
4.698123
 21
-5.179455
 31
0.0
  0
LINE
  5
1DC
100
AcDbEntity
  8
HIDDEN_LINE
  6
HIDDEN2
100
AcDbLine
 10
5.417123
 20
-6.054455
 30
0.0
 11
5.417123
 21
-5.179455
 31
0.0
  0
LINE
  5
1DD
100
AcDbEntity
  8
HIDDEN_LINE
  6
HIDDEN2
100
AcDbLine
 10
5.386123
 20
-6.054455
 30
0.0
 11
5.386123
 21
-5.179455
 31
0.0
  0
LINE
  5
1DE
100
AcDbEntity
  8
0
100
AcDbLine
 10
5.667123
 20
-6.054455
 30
0.0
 11
5.667123
 21
-5.272455
 31
0.0
  0
ARC
  5
1DF
100
AcDbEntity
  8
0
100
AcDbCircle
 10
5.574123
 20
-5.272455
 30
0.0
 40
0.093
100
AcDbArc
 50
0.0
 51
90.0
  0
ARC
  5
1E0
100
AcDbEntity
  8
0
100
AcDbCircle
 10
5.573123
 20
-5.086455
 30
0.0
 40
0.093
100
AcDbArc
 50
180.0
 51
270.0
  0
LINE
  5
1E1
100
AcDbEntity
  8
0
100
AcDbLine
 10
5.573123
 20
-5.179455
 30
0.0
 11
5.574123
 21
-5.179455
 31
0.0
  0
LINE
  5
1E2
100
AcDbEntity
  8
0
100
AcDbLine
 10
4.573123
 20
-3.179455
 30
0.0
 11
5.573123
 21
-3.179455
 31
0.0
  0
ARC
  5
1E3
100
AcDbEntity
  8
0
100
AcDbCircle
 10
4.573123
 20
-3.272455
 30
0.0
 40
0.093
100
AcDbArc
 50
90.0
 51
180.0
  0
LINE
  5
1E4
100
AcDbEntity
  8
0
100
AcDbLine
 10
4.480123
 20
-3.179455
 30
0.0
 11
4.698123
 21
-3.179455
 31
0.0
  0
LINE
  5
1E5
100
AcDbEntity
  8
0
100
AcDbLine
 10
5.573123
 20
-4.054455
 30
0.0
 11
5.667123
 21
-4.054455
 31
0.0
  0
ARC
  5
1E6
100
AcDbEntity
  8
0
100
AcDbCircle
 10
5.573123
 20
-3.961455
 30
0.0
 40
0.093
100
AcDbArc
 50
180.0
 51
270.0
  0
LINE
  5
1E7
100
AcDbEntity
  8
0
100
AcDbLine
 10
5.573123
 20
-3.179455
 30
0.0
 11
5.730123
 21
-3.179455
 31
0.0
  0
ARC
  5
1E8
100
AcDbEntity
  8
0
100
AcDbCircle
 10
5.573123
 20
-3.272455
 30
0.0
 40
0.093
100
AcDbArc
 50
90.0
 51
180.0
  0
LEADER
  5
1E9
100
AcDbEntity
  8
DIMS_TEXT
100
AcDbLeader
  3
STANDARD
 76
     2
 10
3.304129
 20
4.841196
 30
0.0
 10
3.741061
 20
4.841196
 30
0.0
 77
   256
1001
ACAD
1000
DSTYLE
1002
{
1070
    78
1070
     4
1070
   288
1070
     1
1070
   284
1070
     4
1070
   140
1040
0.15
1070
   272
1070
     0
1070
   271
1070
     2
1002
}
  0
MTEXT
  5
1EA
102
{ACAD_REACTORS
330
1EB
102
}
100
AcDbEntity
  8
DIMS_TEXT
100
AcDbMText
 10
6.794818
 20
3.30302
 30
0.0
 40
0.15
 41
0.0
 71
     4
 72
     1
  1
\A1;.375-16 UNC-2B\PTHRU\P(12 PLACES)
  0
LEADER
  5
1EB
100
AcDbEntity
  8
DIMS_TEXT
100
AcDbLeader
  3
STANDARD
 73
     0
 40
0.65
 41
1.9
 76
     3
 10
5.382192
 20
1.731177
 30
0.0
 10
6.620034
 20
3.30302
 30
0.0
 10
6.704818
 20
3.30302
 30
0.0
 77
   256
340
1EA
1001
ACAD
1000
DSTYLE
1002
{
1070
    78
1070
     4
1070
   288
1070
     1
1070
   284
1070
     4
1070
   140
1040
0.15
1070
   272
1070
     0
1070
   271
1070
     2
1002
}
  0
DIMENSION
  5
1EC
100
AcDbEntity
  8
DIMS_TEXT
100
AcDbDimension
  2
*D6
 10
6.750173
 20
-1.429455
 30
0.0
 11
6.750173
 21
-0.538933
 31
0.0
 12
-10.052715
 22
-9.423375
 32
0.0
 70
   128
  1
3.000\PTYP.
  3
STANDARD
100
AcDbAlignedDimension
 13
5.730123
 23
1.570545
 33
0.0
 14
6.050374
 24
-1.429455
 34
0.0
 50
90.0
100
AcDbRotatedDimension
1001
ACAD
1000
DSTYLE
1002
{
1070
    78
1070
     4
1070
   284
1070
     4
1070
   140
1040
0.15
1070
   172
1070
     1
1070
   272
1070
     0
1070
    40
1040
1.086872
1070
   271
1070
     2
1002
}
  0
LINE
  5
1ED
100
AcDbEntity
  8
HIDDEN_LINE
  6
HIDDEN2
100
AcDbLine
 10
5.480123
 20
-0.426455
 30
0.0
 11
5.480123
 21
0.567545
 31
0.0
  0
LINE
  5
1EE
100
AcDbEntity
  8
HIDDEN_LINE
  6
HIDDEN2
100
AcDbLine
 10
5.542123
 20
-0.366455
 30
0.0
 11
5.542123
 21
0.507545
 31
0.0
  0
LINE
  5
1EF
100
AcDbEntity
  8
0
100
AcDbLine
 10
5.667623
 20
-1.429955
 30
0.0
 11
5.667623
 21
1.571045
 31
0.0
  0
CIRCLE
  5
1F0
100
AcDbEntity
  8
HIDDEN_LINE
  6
HIDDEN2
100
AcDbCircle
 10
5.230123
 20
-1.429455
 30
0.0
 40
0.1875
  0
CIRCLE
  5
1F1
100
AcDbEntity
  8
0
100
AcDbCircle
 10
5.230123
 20
-1.429455
 30
0.0
 40
0.156
  0
LINE
  5
1F2
100
AcDbEntity
  8
HIDDEN_LINE
  6
HIDDEN2
100
AcDbLine
 10
5.480123
 20
-0.679455
 30
0.0
 11
4.497696
 21
-1.661882
 31
0.0
  0
LINE
  5
1F3
100
AcDbEntity
  8
0
100
AcDbLine
 10
4.573123
 20
-2.179455
 30
0.0
 11
5.573123
 21
-2.179455
 31
0.0
  0
ARC
  5
1F4
100
AcDbEntity
  8
0
100
AcDbCircle
 10
5.230623
 20
-1.429955
 30
0.0
 40
0.437
100
AcDbArc
 50
270.0
 51
360.0
  0
LINE
  5
1F5
100
AcDbEntity
  8
0
100
AcDbLine
 10
4.480123
 20
-2.086455
 30
0.0
 11
4.480123
 21
-1.866955
 31
0.0
  0
LINE
  5
1F6
100
AcDbEntity
  8
0
100
AcDbLine
 10
4.480123
 20
-2.179455
 30
0.0
 11
4.698123
 21
-2.179455
 31
0.0
  0
ARC
  5
1F7
100
AcDbEntity
  8
HIDDEN_LINE
  6
HIDDEN2
100
AcDbCircle
 10
4.45527
 20
-1.619455
 30
0.0
 40
0.06
100
AcDbArc
 50
270.0
 51
315.0
  0
LINE
  5
1F8
100
AcDbEntity
  8
HIDDEN_LINE
  6
HIDDEN2
100
AcDbLine
 10
4.480123
 20
-1.866955
 30
0.0
 11
4.480123
 21
-1.679455
 31
0.0
  0
LINE
  5
1F9
100
AcDbEntity
  8
HIDDEN_LINE
  6
HIDDEN2
100
AcDbLine
 10
5.480123
 20
-1.788729
 30
0.0
 11
5.480123
 21
-0.679455
 31
0.0
  0
LINE
  5
1FA
100
AcDbEntity
  8
0
100
AcDbLine
 10
5.480123
 20
-2.086455
 30
0.0
 11
5.480123
 21
-1.788729
 31
0.0
  0
LINE
  5
1FB
100
AcDbEntity
  8
0
100
AcDbLine
 10
5.573123
 20
-2.179455
 30
0.0
 11
5.730123
 21
-2.179455
 31
0.0
  0
LINE
  5
1FC
100
AcDbEntity
  8
HIDDEN_LINE
  6
HIDDEN2
100
AcDbLine
 10
5.480123
 20
-0.679455
 30
0.0
 11
5.480123
 21
-0.426455
 31
0.0
  0
ARC
  5
1FD
100
AcDbEntity
  8
HIDDEN_LINE
  6
HIDDEN2
100
AcDbCircle
 10
5.540123
 20
-0.426455
 30
0.0
 40
0.06
100
AcDbArc
 50
90.0
 51
180.0
  0
LINE
  5
1FE
100
AcDbEntity
  8
0
100
AcDbLine
 10
5.540123
 20
-0.366455
 30
0.0
 11
5.542123
 21
-0.366455
 31
0.0
  0
CIRCLE
  5
1FF
100
AcDbEntity
  8
HIDDEN_LINE
  6
HIDDEN2
100
AcDbCircle
 10
5.230123
 20
1.570545
 30
0.0
 40
0.1875
  0
CIRCLE
  5
200
100
AcDbEntity
  8
0
100
AcDbCircle
 10
5.230123
 20
1.570545
 30
0.0
 40
0.156
  0
LINE
  5
201
100
AcDbEntity
  8
0
  6
DASHEDX2
100
AcDbLine
 10
5.205282
 20
2.015545
 30
0.0
 11
5.730123
 21
2.015545
 31
0.0
  0
LINE
  5
202
100
AcDbEntity
  8
HIDDEN_LINE
  6
HIDDEN2
100
AcDbLine
 10
4.497696
 20
1.802971
 30
0.0
 11
5.480123
 21
0.820545
 31
0.0
  0
ARC
  5
203
100
AcDbEntity
  8
0
100
AcDbCircle
 10
5.230623
 20
1.571045
 30
0.0
 40
0.437
100
AcDbArc
 50
0.0
 51
90.0
  0
ARC
  5
204
100
AcDbEntity
  8
HIDDEN_LINE
  6
HIDDEN2
100
AcDbCircle
 10
4.45527
 20
1.760545
 30
0.0
 40
0.06
100
AcDbArc
 50
45.0
 51
90.0
  0
DIMENSION
  5
205
100
AcDbEntity
  8
DIMS_TEXT
100
AcDbDimension
  2
*D5
 10
6.243025
 20
0.070545
 30
0.0
 11
6.243025
 21
0.820545
 31
0.0
 12
-10.052715
 22
-9.423375
 32
0.0
  1
1.500\PTYP.
  3
STANDARD
100
AcDbAlignedDimension
 13
5.730123
 23
1.570545
 33
0.0
 14
5.667623
 24
0.070545
 34
0.0
 50
90.0
100
AcDbRotatedDimension
1001
ACAD
1000
DSTYLE
1002
{
1070
    78
1070
     4
1070
   284
1070
     4
1070
   140
1040
0.15
1070
   172
1070
     1
1070
   272
1070
     0
1070
    40
1040
1.086872
1070
   271
1070
     2
1002
}
  0
LINE
  5
206
100
AcDbEntity
  8
HIDDEN_LINE
  6
HIDDEN2
100
AcDbLine
 10
5.480123
 20
0.820545
 30
0.0
 11
5.480123
 21
1.260545
 31
0.0
  0
LINE
  5
207
100
AcDbEntity
  8
HIDDEN_LINE
  6
HIDDEN2
100
AcDbLine
 10
5.480123
 20
0.567545
 30
0.0
 11
5.480123
 21
0.820545
 31
0.0
  0
ARC
  5
208
100
AcDbEntity
  8
HIDDEN_LINE
  6
HIDDEN2
100
AcDbCircle
 10
5.540123
 20
0.567545
 30
0.0
 40
0.06
100
AcDbArc
 50
180.0
 51
270.0
  0
LINE
  5
209
100
AcDbEntity
  8
0
100
AcDbLine
 10
5.540123
 20
0.507545
 30
0.0
 11
5.542123
 21
0.507545
 31
0.0
  0
LINE
  5
20A
100
AcDbEntity
  8
0
100
AcDbLine
 10
5.730123
 20
1.320545
 30
0.0
 11
5.730123
 21
2.320545
 31
0.0
  0
LINE
  5
20B
100
AcDbEntity
  8
HIDDEN_LINE
  6
HIDDEN2
100
AcDbLine
 10
5.540123
 20
1.320545
 30
0.0
 11
5.667623
 21
1.320545
 31
0.0
  0
ARC
  5
20C
100
AcDbEntity
  8
HIDDEN_LINE
  6
HIDDEN2
100
AcDbCircle
 10
5.540123
 20
1.260545
 30
0.0
 40
0.06
100
AcDbArc
 50
90.0
 51
180.0
  0
LINE
  5
20D
100
AcDbEntity
  8
0
100
AcDbLine
 10
5.667623
 20
1.320545
 30
0.0
 11
5.730123
 21
1.320545
 31
0.0
  0
LINE
  5
20E
100
AcDbEntity
  8
DIMS_TEXT
100
AcDbLine
 10
3.730123
 20
3.614777
 30
0.0
 11
3.730123
 21
4.845676
 31
0.0
  0
LINE
  5
20F
100
AcDbEntity
  8
CTR_LINES
100
AcDbLine
 10
-9.946026
 20
0.070545
 30
0.0
 11
16.529937
 21
0.070545
 31
0.0
  0
ENDBLK
  5
211
100
AcDbEntity
  8
0
100
AcDbBlockEnd
  0
BLOCK
  5
4E2
100
AcDbEntity
  8
0
100
AcDbBlockBegin
  2
*D15
 70
     1
 10
0.0
 20
0.0
 30
0.0
  3
*D15
  1

  0
LINE
  5
4E3
100
AcDbEntity
  8
0
  6
BYBLOCK
 62
     0
100
AcDbLine
 10
-10.922975
 20
7.7853
 30
0.0
 11
-10.922975
 21
9.249159
 31
0.0
  0
LINE
  5
4E4
100
AcDbEntity
  8
0
  6
BYBLOCK
 62
     0
100
AcDbLine
 10
-7.922975
 20
7.7853
 30
0.0
 11
-7.922975
 21
9.249159
 31
0.0
  0
LINE
  5
4E5
100
AcDbEntity
  8
0
  6
BYBLOCK
 62
     0
100
AcDbLine
 10
-10.742975
 20
9.069159
 30
0.0
 11
-9.185427
 21
9.069159
 31
0.0
  0
LINE
  5
4E6
100
AcDbEntity
  8
0
  6
BYBLOCK
 62
     0
100
AcDbLine
 10
-8.102975
 20
9.069159
 30
0.0
 11
-8.480427
 21
9.069159
 31
0.0
  0
SOLID
  5
4E7
100
AcDbEntity
  8
0
  6
BYBLOCK
 62
     0
100
AcDbTrace
 10
-10.742975
 20
9.099159
 30
0.0
 11
-10.742975
 21
9.039159
 31
0.0
 12
-10.922975
 22
9.069159
 32
0.0
 13
-10.922975
 23
9.069159
 33
0.0
  0
SOLID
  5
4E8
100
AcDbEntity
  8
0
  6
BYBLOCK
 62
     0
100
AcDbTrace
 10
-8.102975
 20
9.099159
 30
0.0
 11
-8.102975
 21
9.039159
 31
0.0
 12
-7.922975
 22
9.069159
 32
0.0
 13
-7.922975
 23
9.069159
 33
0.0
  0
MTEXT
  5
4E9
100
AcDbEntity
  8
0
  6
BYBLOCK
 62
     0
100
AcDbMText
 10
-8.832927
 20
9.069159
 30
0.0
 40
0.15
 41
0.0
 71
     5
 72
     1
  1
\A1;3.000\PTYP.
  0
POINT
  5
4EA
100
AcDbEntity
  8
DEFPOINTS
  6
BYBLOCK
 62
     0
100
AcDbPoint
 10
-10.922975
 20
7.7228
 30
0.0
  0
POINT
  5
4EB
100
AcDbEntity
  8
DEFPOINTS
  6
BYBLOCK
 62
     0
100
AcDbPoint
 10
-7.922975
 20
7.7228
 30
0.0
  0
POINT
  5
4EC
100
AcDbEntity
  8
DEFPOINTS
  6
BYBLOCK
 62
     0
100
AcDbPoint
 10
-7.922975
 20
9.069159
 30
0.0
  0
ENDBLK
  5
4ED
100
AcDbEntity
  8
0
100
AcDbBlockEnd
  0
BLOCK
  5
4EE
100
AcDbEntity
  8
0
100
AcDbBlockBegin
  2
*D16
 70
     1
 10
0.0
 20
0.0
 30
0.0
  3
*D16
  1

  0
LINE
  5
4EF
100
AcDbEntity
  8
0
  6
BYBLOCK
 62
     0
100
AcDbLine
 10
-10.922975
 20
7.7853
 30
0.0
 11
-10.922975
 21
8.764695
 31
0.0
  0
LINE
  5
4F0
100
AcDbEntity
  8
0
  6
BYBLOCK
 62
     0
100
AcDbLine
 10
-9.422975
 20
7.7853
 30
0.0
 11
-9.422975
 21
8.764695
 31
0.0
  0
LINE
  5
4F1
100
AcDbEntity
  8
0
  6
BYBLOCK
 62
     0
100
AcDbLine
 10
-10.742975
 20
8.584695
 30
0.0
 11
-10.507982
 21
8.584695
 31
0.0
  0
LINE
  5
4F2
100
AcDbEntity
  8
0
  6
BYBLOCK
 62
     0
100
AcDbLine
 10
-9.602975
 20
8.584695
 30
0.0
 11
-9.827982
 21
8.584695
 31
0.0
  0
SOLID
  5
4F3
100
AcDbEntity
  8
0
  6
BYBLOCK
 62
     0
100
AcDbTrace
 10
-10.742975
 20
8.614695
 30
0.0
 11
-10.742975
 21
8.554695
 31
0.0
 12
-10.922975
 22
8.584695
 32
0.0
 13
-10.922975
 23
8.584695
 33
0.0
  0
SOLID
  5
4F4
100
AcDbEntity
  8
0
  6
BYBLOCK
 62
     0
100
AcDbTrace
 10
-9.602975
 20
8.614695
 30
0.0
 11
-9.602975
 21
8.554695
 31
0.0
 12
-9.422975
 22
8.584695
 32
0.0
 13
-9.422975
 23
8.584695
 33
0.0
  0
MTEXT
  5
4F5
100
AcDbEntity
  8
0
  6
BYBLOCK
 62
     0
100
AcDbMText
 10
-10.167982
 20
8.584695
 30
0.0
 40
0.15
 41
0.0
 71
     5
 72
     1
  1
\A1;1.500\PTYP.
  0
POINT
  5
4F6
100
AcDbEntity
  8
DEFPOINTS
  6
BYBLOCK
 62
     0
100
AcDbPoint
 10
-10.922975
 20
7.7228
 30
0.0
  0
POINT
  5
4F7
100
AcDbEntity
  8
DEFPOINTS
  6
BYBLOCK
 62
     0
100
AcDbPoint
 10
-9.422975
 20
7.7228
 30
0.0
  0
POINT
  5
4F8
100
AcDbEntity
  8
DEFPOINTS
  6
BYBLOCK
 62
     0
100
AcDbPoint
 10
-9.422975
 20
8.584695
 30
0.0
  0
ENDBLK
  5
4F9
100
AcDbEntity
  8
0
100
AcDbBlockEnd
  0
BLOCK
  5
4CA
100
AcDbEntity
  8
0
100
AcDbBlockBegin
  2
*D17
 70
     1
 10
0.0
 20
0.0
 30
0.0
  3
*D17
  1

  0
LINE
  5
4CB
100
AcDbEntity
  8
0
  6
BYBLOCK
 62
     0
100
AcDbLine
 10
-11.422975
 20
8.004784
 30
0.0
 11
-11.422975
 21
10.125318
 31
0.0
  0
LINE
  5
4CC
100
AcDbEntity
  8
0
  6
BYBLOCK
 62
     0
100
AcDbLine
 10
-7.422975
 20
8.004784
 30
0.0
 11
-7.422975
 21
10.125318
 31
0.0
  0
LINE
  5
4CD
100
AcDbEntity
  8
0
  6
BYBLOCK
 62
     0
100
AcDbLine
 10
-11.242975
 20
9.945318
 30
0.0
 11
-9.817585
 21
9.945318
 31
0.0
  0
LINE
  5
4CE
100
AcDbEntity
  8
0
  6
BYBLOCK
 62
     0
100
AcDbLine
 10
-7.602975
 20
9.945318
 30
0.0
 11
-9.112585
 21
9.945318
 31
0.0
  0
SOLID
  5
4CF
100
AcDbEntity
  8
0
  6
BYBLOCK
 62
     0
100
AcDbTrace
 10
-11.242975
 20
9.975318
 30
0.0
 11
-11.242975
 21
9.915318
 31
0.0
 12
-11.422975
 22
9.945318
 32
0.0
 13
-11.422975
 23
9.945318
 33
0.0
  0
SOLID
  5
4D0
100
AcDbEntity
  8
0
  6
BYBLOCK
 62
     0
100
AcDbTrace
 10
-7.602975
 20
9.975318
 30
0.0
 11
-7.602975
 21
9.915318
 31
0.0
 12
-7.422975
 22
9.945318
 32
0.0
 13
-7.422975
 23
9.945318
 33
0.0
  0
MTEXT
  5
4D1
100
AcDbEntity
  8
0
  6
BYBLOCK
 62
     0
100
AcDbMText
 10
-9.465085
 20
9.945318
 30
0.0
 40
0.15
 41
0.0
 71
     5
 72
     1
  1
\A1;4.000
  0
POINT
  5
4D2
100
AcDbEntity
  8
DEFPOINTS
  6
BYBLOCK
 62
     0
100
AcDbPoint
 10
-11.422975
 20
7.942284
 30
0.0
  0
POINT
  5
4D3
100
AcDbEntity
  8
DEFPOINTS
  6
BYBLOCK
 62
     0
100
AcDbPoint
 10
-7.422975
 20
7.942284
 30
0.0
  0
POINT
  5
4D4
100
AcDbEntity
  8
DEFPOINTS
  6
BYBLOCK
 62
     0
100
AcDbPoint
 10
-7.422975
 20
9.945318
 30
0.0
  0
ENDBLK
  5
4D5
100
AcDbEntity
  8
0
100
AcDbBlockEnd
  0
BLOCK
  5
4D6
100
AcDbEntity
  8
0
100
AcDbBlockBegin
  2
*D18
 70
     1
 10
0.0
 20
0.0
 30
0.0
  3
*D18
  1

  0
LINE
  5
4D7
100
AcDbEntity
  8
0
  6
BYBLOCK
 62
     0
100
AcDbLine
 10
-11.422975
 20
8.004784
 30
0.0
 11
-11.422975
 21
9.671777
 31
0.0
  0
LINE
  5
4D8
100
AcDbEntity
  8
0
  6
BYBLOCK
 62
     0
100
AcDbLine
 10
-9.422975
 20
8.004784
 30
0.0
 11
-9.422975
 21
9.671777
 31
0.0
  0
LINE
  5
4D9
100
AcDbEntity
  8
0
  6
BYBLOCK
 62
     0
100
AcDbLine
 10
-11.242975
 20
9.491777
 30
0.0
 11
-10.775475
 21
9.491777
 31
0.0
  0
LINE
  5
4DA
100
AcDbEntity
  8
0
  6
BYBLOCK
 62
     0
100
AcDbLine
 10
-9.602975
 20
9.491777
 30
0.0
 11
-10.070475
 21
9.491777
 31
0.0
  0
SOLID
  5
4DB
100
AcDbEntity
  8
0
  6
BYBLOCK
 62
     0
100
AcDbTrace
 10
-11.242975
 20
9.521777
 30
0.0
 11
-11.242975
 21
9.461777
 31
0.0
 12
-11.422975
 22
9.491777
 32
0.0
 13
-11.422975
 23
9.491777
 33
0.0
  0
SOLID
  5
4DC
100
AcDbEntity
  8
0
  6
BYBLOCK
 62
     0
100
AcDbTrace
 10
-9.602975
 20
9.521777
 30
0.0
 11
-9.602975
 21
9.461777
 31
0.0
 12
-9.422975
 22
9.491777
 32
0.0
 13
-9.422975
 23
9.491777
 33
0.0
  0
MTEXT
  5
4DD
100
AcDbEntity
  8
0
  6
BYBLOCK
 62
     0
100
AcDbMText
 10
-10.422975
 20
9.491777
 30
0.0
 40
0.15
 41
0.0
 71
     5
 72
     1
  1
\A1;2.000
  0
POINT
  5
4DE
100
AcDbEntity
  8
DEFPOINTS
  6
BYBLOCK
 62
     0
100
AcDbPoint
 10
-11.422975
 20
7.942284
 30
0.0
  0
POINT
  5
4DF
100
AcDbEntity
  8
DEFPOINTS
  6
BYBLOCK
 62
     0
100
AcDbPoint
 10
-9.422975
 20
7.942284
 30
0.0
  0
POINT
  5
4E0
100
AcDbEntity
  8
DEFPOINTS
  6
BYBLOCK
 62
     0
100
AcDbPoint
 10
-9.422975
 20
9.491777
 30
0.0
  0
ENDBLK
  5
4E1
100
AcDbEntity
  8
0
100
AcDbBlockEnd
  0
BLOCK
  5
681
100
AcDbEntity
  8
0
100
AcDbBlockBegin
  2
*D19
 70
     1
 10
0.0
 20
0.0
 30
0.0
  3
*D19
  1

  0
LINE
  5
682
100
AcDbEntity
  8
0
  6
BYBLOCK
 62
     0
100
AcDbLine
 10
3.501632
 20
2.942284
 30
0.0
 11
5.385603
 21
2.942284
 31
0.0
  0
LINE
  5
683
100
AcDbEntity
  8
0
  6
BYBLOCK
 62
     0
100
AcDbLine
 10
4.514612
 20
5.692284
 30
0.0
 11
5.385603
 21
5.692284
 31
0.0
  0
LINE
  5
684
100
AcDbEntity
  8
0
  6
BYBLOCK
 62
     0
100
AcDbLine
 10
5.205603
 20
3.122284
 30
0.0
 11
5.205603
 21
4.169766
 31
0.0
  0
LINE
  5
685
100
AcDbEntity
  8
0
  6
BYBLOCK
 62
     0
100
AcDbLine
 10
5.205603
 20
5.512284
 30
0.0
 11
5.205603
 21
4.499766
 31
0.0
  0
SOLID
  5
686
100
AcDbEntity
  8
0
  6
BYBLOCK
 62
     0
100
AcDbTrace
 10
5.175603
 20
3.122284
 30
0.0
 11
5.235603
 21
3.122284
 31
0.0
 12
5.205603
 22
2.942284
 32
0.0
 13
5.205603
 23
2.942284
 33
0.0
  0
SOLID
  5
687
100
AcDbEntity
  8
0
  6
BYBLOCK
 62
     0
100
AcDbTrace
 10
5.175603
 20
5.512284
 30
0.0
 11
5.235603
 21
5.512284
 31
0.0
 12
5.205603
 22
5.692284
 32
0.0
 13
5.205603
 23
5.692284
 33
0.0
  0
MTEXT
  5
688
100
AcDbEntity
  8
0
  6
BYBLOCK
 62
     0
100
AcDbMText
 10
5.205603
 20
4.334766
 30
0.0
 40
0.15
 41
0.0
 71
     5
 72
     1
  1
\A1;2.750
  0
POINT
  5
689
100
AcDbEntity
  8
DEFPOINTS
  6
BYBLOCK
 62
     0
100
AcDbPoint
 10
3.439132
 20
2.942284
 30
0.0
  0
POINT
  5
68A
100
AcDbEntity
  8
DEFPOINTS
  6
BYBLOCK
 62
     0
100
AcDbPoint
 10
4.452112
 20
5.692284
 30
0.0
  0
POINT
  5
68B
100
AcDbEntity
  8
DEFPOINTS
  6
BYBLOCK
 62
     0
100
AcDbPoint
 10
5.205603
 20
5.692284
 30
0.0
  0
ENDBLK
  5
68C
100
AcDbEntity
  8
0
100
AcDbBlockEnd
  0
BLOCK
  5
675
100
AcDbEntity
  8
0
100
AcDbBlockBegin
  2
*D20
 70
     1
 10
0.0
 20
0.0
 30
0.0
  3
*D20
  1

  0
LINE
  5
676
100
AcDbEntity
  8
0
  6
BYBLOCK
 62
     0
100
AcDbLine
 10
1.272112
 20
7.442284
 30
0.0
 11
5.385603
 21
7.442284
 31
0.0
  0
LINE
  5
677
100
AcDbEntity
  8
0
  6
BYBLOCK
 62
     0
100
AcDbLine
 10
4.514612
 20
5.692284
 30
0.0
 11
5.385603
 21
5.692284
 31
0.0
  0
LINE
  5
678
100
AcDbEntity
  8
0
  6
BYBLOCK
 62
     0
100
AcDbLine
 10
5.205603
 20
7.262284
 30
0.0
 11
5.205603
 21
6.794708
 31
0.0
  0
LINE
  5
679
100
AcDbEntity
  8
0
  6
BYBLOCK
 62
     0
100
AcDbLine
 10
5.205603
 20
5.872284
 30
0.0
 11
5.205603
 21
6.464708
 31
0.0
  0
SOLID
  5
67A
100
AcDbEntity
  8
0
  6
BYBLOCK
 62
     0
100
AcDbTrace
 10
5.175603
 20
7.262284
 30
0.0
 11
5.235603
 21
7.262284
 31
0.0
 12
5.205603
 22
7.442284
 32
0.0
 13
5.205603
 23
7.442284
 33
0.0
  0
SOLID
  5
67B
100
AcDbEntity
  8
0
  6
BYBLOCK
 62
     0
100
AcDbTrace
 10
5.175603
 20
5.872284
 30
0.0
 11
5.235603
 21
5.872284
 31
0.0
 12
5.205603
 22
5.692284
 32
0.0
 13
5.205603
 23
5.692284
 33
0.0
  0
MTEXT
  5
67C
100
AcDbEntity
  8
0
  6
BYBLOCK
 62
     0
100
AcDbMText
 10
5.205603
 20
6.629708
 30
0.0
 40
0.15
 41
0.0
 71
     5
 72
     1
  1
\A1;1.750
  0
POINT
  5
67D
100
AcDbEntity
  8
DEFPOINTS
  6
BYBLOCK
 62
     0
100
AcDbPoint
 10
1.209612
 20
7.442284
 30
0.0
  0
POINT
  5
67E
100
AcDbEntity
  8
DEFPOINTS
  6
BYBLOCK
 62
     0
100
AcDbPoint
 10
4.452112
 20
5.692284
 30
0.0
  0
POINT
  5
67F
100
AcDbEntity
  8
DEFPOINTS
  6
BYBLOCK
 62
     0
100
AcDbPoint
 10
5.205603
 20
5.692284
 30
0.0
  0
ENDBLK
  5
680
100
AcDbEntity
  8
0
100
AcDbBlockEnd
  0
BLOCK
  5
529
100
AcDbEntity
  8
0
100
AcDbBlockBegin
  2
*D21
 70
     1
 10
0.0
 20
0.0
 30
0.0
  3
*D21
  1

  0
LINE
  5
52A
100
AcDbEntity
  8
0
  6
BYBLOCK
 62
     0
100
AcDbLine
 10
-2.235388
 20
7.697713
 30
0.0
 11
-2.235388
 21
9.70244
 31
0.0
  0
LINE
  5
52B
100
AcDbEntity
  8
0
  6
BYBLOCK
 62
     0
100
AcDbLine
 10
4.264612
 20
7.697713
 30
0.0
 11
4.264612
 21
9.70244
 31
0.0
  0
LINE
  5
52C
100
AcDbEntity
  8
0
  6
BYBLOCK
 62
     0
100
AcDbLine
 10
-2.039751
 20
9.506803
 30
0.0
 11
0.612156
 21
9.506803
 31
0.0
  0
LINE
  5
52D
100
AcDbEntity
  8
0
  6
BYBLOCK
 62
     0
100
AcDbLine
 10
4.068975
 20
9.506803
 30
0.0
 11
1.405573
 21
9.506803
 31
0.0
  0
SOLID
  5
52E
100
AcDbEntity
  8
0
  6
BYBLOCK
 62
     0
100
AcDbTrace
 10
-2.039751
 20
9.539409
 30
0.0
 11
-2.039751
 21
9.474197
 31
0.0
 12
-2.235388
 22
9.506803
 32
0.0
 13
-2.235388
 23
9.506803
 33
0.0
  0
SOLID
  5
52F
100
AcDbEntity
  8
0
  6
BYBLOCK
 62
     0
100
AcDbTrace
 10
4.068975
 20
9.539409
 30
0.0
 11
4.068975
 21
9.474197
 31
0.0
 12
4.264612
 22
9.506803
 32
0.0
 13
4.264612
 23
9.506803
 33
0.0
  0
MTEXT
  5
530
100
AcDbEntity
  8
0
  6
BYBLOCK
 62
     0
100
AcDbMText
 10
1.008865
 20
9.506803
 30
0.0
 40
0.163031
 41
0.0
 71
     5
 72
     1
  1
\A1;6.500
  0
POINT
  5
531
100
AcDbEntity
  8
DEFPOINTS
  6
BYBLOCK
 62
     0
100
AcDbPoint
 10
-2.235388
 20
7.629784
 30
0.0
  0
POINT
  5
532
100
AcDbEntity
  8
DEFPOINTS
  6
BYBLOCK
 62
     0
100
AcDbPoint
 10
4.264612
 20
7.629784
 30
0.0
  0
POINT
  5
533
100
AcDbEntity
  8
DEFPOINTS
  6
BYBLOCK
 62
     0
100
AcDbPoint
 10
4.264612
 20
9.506803
 30
0.0
  0
ENDBLK
  5
534
100
AcDbEntity
  8
0
100
AcDbBlockEnd
  0
BLOCK
  5
6FF
100
AcDbEntity
  8
0
100
AcDbBlockBegin
  2
*D22
 70
     1
 10
0.0
 20
0.0
 30
0.0
  3
*D22
  1

  0
LINE
  5
700
100
AcDbEntity
  8
0
  6
BYBLOCK
 62
     0
100
AcDbLine
 10
-2.235388
 20
7.697713
 30
0.0
 11
-2.235388
 21
9.051309
 31
0.0
  0
LINE
  5
701
100
AcDbEntity
  8
0
  6
BYBLOCK
 62
     0
100
AcDbLine
 10
1.014612
 20
8.010213
 30
0.0
 11
1.014612
 21
9.051309
 31
0.0
  0
LINE
  5
702
100
AcDbEntity
  8
0
  6
BYBLOCK
 62
     0
100
AcDbLine
 10
-2.039751
 20
8.855672
 30
0.0
 11
-1.020683
 21
8.855672
 31
0.0
  0
LINE
  5
703
100
AcDbEntity
  8
0
  6
BYBLOCK
 62
     0
100
AcDbLine
 10
0.818975
 20
8.855672
 30
0.0
 11
-0.200094
 21
8.855672
 31
0.0
  0
SOLID
  5
704
100
AcDbEntity
  8
0
  6
BYBLOCK
 62
     0
100
AcDbTrace
 10
-2.039751
 20
8.888279
 30
0.0
 11
-2.039751
 21
8.823066
 31
0.0
 12
-2.235388
 22
8.855672
 32
0.0
 13
-2.235388
 23
8.855672
 33
0.0
  0
SOLID
  5
705
100
AcDbEntity
  8
0
  6
BYBLOCK
 62
     0
100
AcDbTrace
 10
0.818975
 20
8.888279
 30
0.0
 11
0.818975
 21
8.823066
 31
0.0
 12
1.014612
 22
8.855672
 32
0.0
 13
1.014612
 23
8.855672
 33
0.0
  0
MTEXT
  5
706
100
AcDbEntity
  8
0
  6
BYBLOCK
 62
     0
100
AcDbMText
 10
-0.610388
 20
8.855672
 30
0.0
 40
0.163031
 41
0.0
 71
     5
 72
     1
  1
\A1;3.250\PTYP.
  0
POINT
  5
707
100
AcDbEntity
  8
DEFPOINTS
  6
BYBLOCK
 62
     0
100
AcDbPoint
 10
-2.235388
 20
7.629784
 30
0.0
  0
POINT
  5
708
100
AcDbEntity
  8
DEFPOINTS
  6
BYBLOCK
 62
     0
100
AcDbPoint
 10
1.014612
 20
7.942284
 30
0.0
  0
POINT
  5
709
100
AcDbEntity
  8
DEFPOINTS
  6
BYBLOCK
 62
     0
100
AcDbPoint
 10
1.014612
 20
8.855672
 30
0.0
  0
ENDBLK
  5
70A
100
AcDbEntity
  8
0
100
AcDbBlockEnd
  0
BLOCK
  5
486
100
AcDbEntity
  8
0
100
AcDbBlockBegin
  2
*D23
 70
     1
 10
0.0
 20
0.0
 30
0.0
  3
*D23
  1

  0
LINE
  5
487
100
AcDbEntity
  8
0
  6
BYBLOCK
 62
     0
100
AcDbLine
 10
12.761026
 20
7.192284
 30
0.0
 11
13.908784
 21
7.192284
 31
0.0
  0
LINE
  5
488
100
AcDbEntity
  8
0
  6
BYBLOCK
 62
     0
100
AcDbLine
 10
13.081277
 20
4.192284
 30
0.0
 11
13.908784
 21
4.192284
 31
0.0
  0
LINE
  5
489
100
AcDbEntity
  8
0
  6
BYBLOCK
 62
     0
100
AcDbLine
 10
13.713147
 20
6.996647
 30
0.0
 11
13.713147
 21
5.397999
 31
0.0
  0
LINE
  5
48A
100
AcDbEntity
  8
0
  6
BYBLOCK
 62
     0
100
AcDbLine
 10
13.713147
 20
4.387921
 30
0.0
 11
13.713147
 21
4.767613
 31
0.0
  0
SOLID
  5
48B
100
AcDbEntity
  8
0
  6
BYBLOCK
 62
     0
100
AcDbTrace
 10
13.680541
 20
6.996647
 30
0.0
 11
13.745753
 21
6.996647
 31
0.0
 12
13.713147
 22
7.192284
 32
0.0
 13
13.713147
 23
7.192284
 33
0.0
  0
SOLID
  5
48C
100
AcDbEntity
  8
0
  6
BYBLOCK
 62
     0
100
AcDbTrace
 10
13.680541
 20
4.387921
 30
0.0
 11
13.745753
 21
4.387921
 31
0.0
 12
13.713147
 22
4.192284
 32
0.0
 13
13.713147
 23
4.192284
 33
0.0
  0
MTEXT
  5
48D
100
AcDbEntity
  8
0
  6
BYBLOCK
 62
     0
100
AcDbMText
 10
13.713147
 20
5.082806
 30
0.0
 40
0.163031
 41
0.0
 71
     5
 72
     1
  1
\A1;3.000\PTYP.
  0
POINT
  5
48E
100
AcDbEntity
  8
DEFPOINTS
  6
BYBLOCK
 62
     0
100
AcDbPoint
 10
12.693097
 20
7.192284
 30
0.0
  0
POINT
  5
48F
100
AcDbEntity
  8
DEFPOINTS
  6
BYBLOCK
 62
     0
100
AcDbPoint
 10
13.013348
 20
4.192284
 30
0.0
  0
POINT
  5
490
100
AcDbEntity
  8
DEFPOINTS
  6
BYBLOCK
 62
     0
100
AcDbPoint
 10
13.713147
 20
4.192284
 30
0.0
  0
ENDBLK
  5
491
100
AcDbEntity
  8
0
100
AcDbBlockEnd
  0
BLOCK
  5
492
100
AcDbEntity
  8
0
100
AcDbBlockBegin
  2
*D24
 70
     1
 10
0.0
 20
0.0
 30
0.0
  3
*D24
  1

  0
LINE
  5
493
100
AcDbEntity
  8
0
  6
BYBLOCK
 62
     0
100
AcDbLine
 10
12.761026
 20
7.192284
 30
0.0
 11
13.401636
 21
7.192284
 31
0.0
  0
LINE
  5
494
100
AcDbEntity
  8
0
  6
BYBLOCK
 62
     0
100
AcDbLine
 10
12.698526
 20
5.692284
 30
0.0
 11
13.401636
 21
5.692284
 31
0.0
  0
LINE
  5
495
100
AcDbEntity
  8
0
  6
BYBLOCK
 62
     0
100
AcDbLine
 10
13.205999
 20
6.996647
 30
0.0
 11
13.205999
 21
6.757477
 31
0.0
  0
LINE
  5
496
100
AcDbEntity
  8
0
  6
BYBLOCK
 62
     0
100
AcDbLine
 10
13.205999
 20
5.887921
 30
0.0
 11
13.205999
 21
6.127091
 31
0.0
  0
SOLID
  5
497
100
AcDbEntity
  8
0
  6
BYBLOCK
 62
     0
100
AcDbTrace
 10
13.173393
 20
6.996647
 30
0.0
 11
13.238605
 21
6.996647
 31
0.0
 12
13.205999
 22
7.192284
 32
0.0
 13
13.205999
 23
7.192284
 33
0.0
  0
SOLID
  5
498
100
AcDbEntity
  8
0
  6
BYBLOCK
 62
     0
100
AcDbTrace
 10
13.173393
 20
5.887921
 30
0.0
 11
13.238605
 21
5.887921
 31
0.0
 12
13.205999
 22
5.692284
 32
0.0
 13
13.205999
 23
5.692284
 33
0.0
  0
MTEXT
  5
499
100
AcDbEntity
  8
0
  6
BYBLOCK
 62
     0
100
AcDbMText
 10
13.205999
 20
6.442284
 30
0.0
 40
0.163031
 41
0.0
 71
     5
 72
     1
  1
\A1;1.500\PTYP.
  0
POINT
  5
49A
100
AcDbEntity
  8
DEFPOINTS
  6
BYBLOCK
 62
     0
100
AcDbPoint
 10
12.693097
 20
7.192284
 30
0.0
  0
POINT
  5
49B
100
AcDbEntity
  8
DEFPOINTS
  6
BYBLOCK
 62
     0
100
AcDbPoint
 10
12.630597
 20
5.692284
 30
0.0
  0
POINT
  5
49C
100
AcDbEntity
  8
DEFPOINTS
  6
BYBLOCK
 62
     0
100
AcDbPoint
 10
13.205999
 20
5.692284
 30
0.0
  0
ENDBLK
  5
49D
100
AcDbEntity
  8
0
100
AcDbBlockEnd
  0
BLOCK
  5
55B
100
AcDbEntity
  8
0
100
AcDbBlockBegin
  2
*D25
 70
     1
 10
0.0
 20
0.0
 30
0.0
  3
*D25
  1

  0
LINE
  5
55C
100
AcDbEntity
  8
0
  6
BYBLOCK
 62
     0
100
AcDbLine
 10
-4.985388
 20
6.194784
 30
0.0
 11
-4.985388
 21
10.38802
 31
0.0
  0
LINE
  5
55D
100
AcDbEntity
  8
0
  6
BYBLOCK
 62
     0
100
AcDbLine
 10
4.264612
 20
7.692284
 30
0.0
 11
4.264612
 21
10.38802
 31
0.0
  0
LINE
  5
55E
100
AcDbEntity
  8
0
  6
BYBLOCK
 62
     0
100
AcDbLine
 10
-4.805388
 20
10.20802
 30
0.0
 11
-0.795388
 21
10.20802
 31
0.0
  0
LINE
  5
55F
100
AcDbEntity
  8
0
  6
BYBLOCK
 62
     0
100
AcDbLine
 10
4.084612
 20
10.20802
 30
0.0
 11
0.074612
 21
10.20802
 31
0.0
  0
SOLID
  5
560
100
AcDbEntity
  8
0
  6
BYBLOCK
 62
     0
100
AcDbTrace
 10
-4.805388
 20
10.23802
 30
0.0
 11
-4.805388
 21
10.17802
 31
0.0
 12
-4.985388
 22
10.20802
 32
0.0
 13
-4.985388
 23
10.20802
 33
0.0
  0
SOLID
  5
561
100
AcDbEntity
  8
0
  6
BYBLOCK
 62
     0
100
AcDbTrace
 10
4.084612
 20
10.23802
 30
0.0
 11
4.084612
 21
10.17802
 31
0.0
 12
4.264612
 22
10.20802
 32
0.0
 13
4.264612
 23
10.20802
 33
0.0
  0
MTEXT
  5
562
100
AcDbEntity
  8
0
  6
BYBLOCK
 62
     0
100
AcDbMText
 10
-0.360388
 20
10.20802
 30
0.0
 40
0.18
 41
0.0
 71
     5
 72
     1
  1
\A1;9.250
  0
POINT
  5
563
100
AcDbEntity
  8
DEFPOINTS
  6
BYBLOCK
 62
     0
100
AcDbPoint
 10
-4.985388
 20
6.132284
 30
0.0
  0
POINT
  5
564
100
AcDbEntity
  8
DEFPOINTS
  6
BYBLOCK
 62
     0
100
AcDbPoint
 10
4.264612
 20
7.629784
 30
0.0
  0
POINT
  5
565
100
AcDbEntity
  8
DEFPOINTS
  6
BYBLOCK
 62
     0
100
AcDbPoint
 10
4.264612
 20
10.20802
 30
0.0
  0
ENDBLK
  5
566
100
AcDbEntity
  8
0
100
AcDbBlockEnd
  0
BLOCK
  5
5D4
100
AcDbEntity
  8
0
100
AcDbBlockBegin
  2
*D26
 70
     1
 10
0.0
 20
0.0
 30
0.0
  3
*D26
  1

  0
LINE
  5
5D5
100
AcDbEntity
  8
0
  6
BYBLOCK
 62
     0
100
AcDbLine
 10
-11.422475
 20
-0.307716
 30
0.0
 11
-12.833529
 21
-0.307716
 31
0.0
  0
LINE
  5
5D6
100
AcDbEntity
  8
0
  6
BYBLOCK
 62
     0
100
AcDbLine
 10
-11.874551
 20
5.692284
 30
0.0
 11
-12.833529
 21
5.692284
 31
0.0
  0
LINE
  5
5D7
100
AcDbEntity
  8
0
  6
BYBLOCK
 62
     0
100
AcDbLine
 10
-12.653529
 20
-0.127716
 30
0.0
 11
-12.653529
 21
2.512284
 31
0.0
  0
LINE
  5
5D8
100
AcDbEntity
  8
0
  6
BYBLOCK
 62
     0
100
AcDbLine
 10
-12.653529
 20
5.512284
 30
0.0
 11
-12.653529
 21
2.872284
 31
0.0
  0
SOLID
  5
5D9
100
AcDbEntity
  8
0
  6
BYBLOCK
 62
     0
100
AcDbTrace
 10
-12.683529
 20
-0.127716
 30
0.0
 11
-12.623529
 21
-0.127716
 31
0.0
 12
-12.653529
 22
-0.307716
 32
0.0
 13
-12.653529
 23
-0.307716
 33
0.0
  0
SOLID
  5
5DA
100
AcDbEntity
  8
0
  6
BYBLOCK
 62
     0
100
AcDbTrace
 10
-12.683529
 20
5.512284
 30
0.0
 11
-12.623529
 21
5.512284
 31
0.0
 12
-12.653529
 22
5.692284
 32
0.0
 13
-12.653529
 23
5.692284
 33
0.0
  0
MTEXT
  5
5DB
100
AcDbEntity
  8
0
  6
BYBLOCK
 62
     0
100
AcDbMText
 10
-12.653529
 20
2.692284
 30
0.0
 40
0.18
 41
0.0
 71
     5
 72
     1
  1
\A1;6.000
  0
POINT
  5
5DC
100
AcDbEntity
  8
DEFPOINTS
  6
BYBLOCK
 62
     0
100
AcDbPoint
 10
-11.359975
 20
-0.307716
 30
0.0
  0
POINT
  5
5DD
100
AcDbEntity
  8
DEFPOINTS
  6
BYBLOCK
 62
     0
100
AcDbPoint
 10
-11.812051
 20
5.692284
 30
0.0
  0
POINT
  5
5DE
100
AcDbEntity
  8
DEFPOINTS
  6
BYBLOCK
 62
     0
100
AcDbPoint
 10
-12.653529
 20
5.692284
 30
0.0
  0
ENDBLK
  5
5DF
100
AcDbEntity
  8
0
100
AcDbBlockEnd
  0
BLOCK
  5
5E2
100
AcDbEntity
  8
0
100
AcDbBlockBegin
  2
*D27
 70
     1
 10
0.0
 20
0.0
 30
0.0
  3
*D27
  1

  0
LINE
  5
5E3
100
AcDbEntity
  8
0
  6
BYBLOCK
 62
     0
100
AcDbLine
 10
-9.925475
 20
-3.057716
 30
0.0
 11
-13.937154
 21
-3.057716
 31
0.0
  0
LINE
  5
5E4
100
AcDbEntity
  8
0
  6
BYBLOCK
 62
     0
100
AcDbLine
 10
-11.485475
 20
7.942284
 30
0.0
 11
-13.937154
 21
7.942284
 31
0.0
  0
LINE
  5
5E5
100
AcDbEntity
  8
0
  6
BYBLOCK
 62
     0
100
AcDbLine
 10
-13.757154
 20
-2.877716
 30
0.0
 11
-13.757154
 21
2.262284
 31
0.0
  0
LINE
  5
5E6
100
AcDbEntity
  8
0
  6
BYBLOCK
 62
     0
100
AcDbLine
 10
-13.757154
 20
7.762284
 30
0.0
 11
-13.757154
 21
2.622284
 31
0.0
  0
SOLID
  5
5E7
100
AcDbEntity
  8
0
  6
BYBLOCK
 62
     0
100
AcDbTrace
 10
-13.787154
 20
-2.877716
 30
0.0
 11
-13.727154
 21
-2.877716
 31
0.0
 12
-13.757154
 22
-3.057716
 32
0.0
 13
-13.757154
 23
-3.057716
 33
0.0
  0
SOLID
  5
5E8
100
AcDbEntity
  8
0
  6
BYBLOCK
 62
     0
100
AcDbTrace
 10
-13.787154
 20
7.762284
 30
0.0
 11
-13.727154
 21
7.762284
 31
0.0
 12
-13.757154
 22
7.942284
 32
0.0
 13
-13.757154
 23
7.942284
 33
0.0
  0
MTEXT
  5
5E9
100
AcDbEntity
  8
0
  6
BYBLOCK
 62
     0
100
AcDbMText
 10
-13.757154
 20
2.442284
 30
0.0
 40
0.18
 41
0.0
 71
     5
 72
     1
  1
\A1;11.000
  0
POINT
  5
5EA
100
AcDbEntity
  8
DEFPOINTS
  6
BYBLOCK
 62
     0
100
AcDbPoint
 10
-9.862975
 20
-3.057716
 30
0.0
  0
POINT
  5
5EB
100
AcDbEntity
  8
DEFPOINTS
  6
BYBLOCK
 62
     0
100
AcDbPoint
 10
-11.422975
 20
7.942284
 30
0.0
  0
POINT
  5
5EC
100
AcDbEntity
  8
DEFPOINTS
  6
BYBLOCK
 62
     0
100
AcDbPoint
 10
-13.757154
 20
7.942284
 30
0.0
  0
ENDBLK
  5
5ED
100
AcDbEntity
  8
0
100
AcDbBlockEnd
  0
BLOCK
  5
61F
100
AcDbEntity
  8
0
100
AcDbBlockBegin
  2
*D28
 70
     1
 10
0.0
 20
0.0
 30
0.0
  3
*D28
  1

  0
LINE
  5
620
100
AcDbEntity
  8
0
  6
BYBLOCK
 62
     0
100
AcDbLine
 10
4.145622
 20
1.633787
 30
0.0
 11
3.965622
 21
1.633787
 31
0.0
  0
LINE
  5
621
100
AcDbEntity
  8
0
  6
BYBLOCK
 62
     0
100
AcDbLine
 10
3.965622
 20
1.633787
 30
0.0
 11
3.018187
 21
2.666015
 31
0.0
  0
MTEXT
  5
622
100
AcDbEntity
  8
0
  6
BYBLOCK
 62
     0
100
AcDbMText
 10
5.030622
 20
1.633787
 30
0.0
 40
0.18
 41
0.0
 71
     5
 72
     1
  1
\A1;\U+2205.390 THRU\PX 3
  0
SOLID
  5
623
100
AcDbEntity
  8
0
  6
BYBLOCK
 62
     0
100
AcDbTrace
 10
3.040288
 20
2.686301
 30
0.0
 11
2.996085
 21
2.645729
 31
0.0
 12
2.896471
 22
2.798624
 32
0.0
 13
2.896471
 23
2.798624
 33
0.0
  0
LINE
  5
624
100
AcDbEntity
  8
0
  6
BYBLOCK
 62
     0
100
AcDbLine
 10
2.674612
 20
2.942284
 30
0.0
 11
2.854612
 21
2.942284
 31
0.0
  0
LINE
  5
625
100
AcDbEntity
  8
0
  6
BYBLOCK
 62
     0
100
AcDbLine
 10
2.764612
 20
2.852284
 30
0.0
 11
2.764612
 21
3.032284
 31
0.0
  0
POINT
  5
626
100
AcDbEntity
  8
DEFPOINTS
  6
BYBLOCK
 62
     0
100
AcDbPoint
 10
2.896471
 20
2.798624
 30
0.0
  0
POINT
  5
627
100
AcDbEntity
  8
DEFPOINTS
  6
BYBLOCK
 62
     0
100
AcDbPoint
 10
2.632753
 20
3.085944
 30
0.0
  0
ENDBLK
  5
628
100
AcDbEntity
  8
0
100
AcDbBlockEnd
  0
BLOCK
  5
643
100
AcDbEntity
  8
0
100
AcDbBlockBegin
  2
*D29
 70
     1
 10
0.0
 20
0.0
 30
0.0
  3
*D29
  1

  0
LINE
  5
644
100
AcDbEntity
  8
0
  6
BYBLOCK
 62
     0
100
AcDbLine
 10
-8.922975
 20
-3.060216
 30
0.0
 11
-8.922975
 21
-3.989006
 31
0.0
  0
LINE
  5
645
100
AcDbEntity
  8
0
  6
BYBLOCK
 62
     0
100
AcDbLine
 10
-9.922975
 20
-3.060216
 30
0.0
 11
-9.922975
 21
-3.989006
 31
0.0
  0
LINE
  5
646
100
AcDbEntity
  8
0
  6
BYBLOCK
 62
     0
100
AcDbLine
 10
-9.102975
 20
-3.809006
 30
0.0
 11
-9.742975
 21
-3.809006
 31
0.0
  0
LINE
  5
647
100
AcDbEntity
  8
0
  6
BYBLOCK
 62
     0
100
AcDbLine
 10
-9.922975
 20
-3.809006
 30
0.0
 11
-10.102975
 21
-3.809006
 31
0.0
  0
SOLID
  5
648
100
AcDbEntity
  8
0
  6
BYBLOCK
 62
     0
100
AcDbTrace
 10
-9.102975
 20
-3.779006
 30
0.0
 11
-9.102975
 21
-3.839006
 31
0.0
 12
-8.922975
 22
-3.809006
 32
0.0
 13
-8.922975
 23
-3.809006
 33
0.0
  0
SOLID
  5
649
100
AcDbEntity
  8
0
  6
BYBLOCK
 62
     0
100
AcDbTrace
 10
-9.742975
 20
-3.779006
 30
0.0
 11
-9.742975
 21
-3.839006
 31
0.0
 12
-9.922975
 22
-3.809006
 32
0.0
 13
-9.922975
 23
-3.809006
 33
0.0
  0
MTEXT
  5
64A
100
AcDbEntity
  8
0
  6
BYBLOCK
 62
     0
100
AcDbMText
 10
-10.567975
 20
-3.809006
 30
0.0
 40
0.18
 41
0.0
 71
     5
 72
     1
  1
\A1;\U+22051.000\PX 2
  0
POINT
  5
64B
100
AcDbEntity
  8
DEFPOINTS
  6
BYBLOCK
 62
     0
100
AcDbPoint
 10
-8.922975
 20
-2.997716
 30
0.0
  0
POINT
  5
64C
100
AcDbEntity
  8
DEFPOINTS
  6
BYBLOCK
 62
     0
100
AcDbPoint
 10
-9.922975
 20
-2.997716
 30
0.0
  0
POINT
  5
64D
100
AcDbEntity
  8
DEFPOINTS
  6
BYBLOCK
 62
     0
100
AcDbPoint
 10
-9.922975
 20
-3.809006
 30
0.0
  0
ENDBLK
  5
64E
100
AcDbEntity
  8
0
100
AcDbBlockEnd
  0
BLOCK
  5
669
100
AcDbEntity
  8
0
100
AcDbBlockBegin
  2
*D30
 70
     1
 10
0.0
 20
0.0
 30
0.0
  3
*D30
  1

  0
LINE
  5
66A
100
AcDbEntity
  8
0
  6
BYBLOCK
 62
     0
100
AcDbLine
 10
0.889612
 20
-3.120216
 30
0.0
 11
0.889612
 21
-4.027987
 31
0.0
  0
LINE
  5
66B
100
AcDbEntity
  8
0
  6
BYBLOCK
 62
     0
100
AcDbLine
 10
1.139612
 20
-3.120216
 30
0.0
 11
1.139612
 21
-4.027987
 31
0.0
  0
LINE
  5
66C
100
AcDbEntity
  8
0
  6
BYBLOCK
 62
     0
100
AcDbLine
 10
0.709612
 20
-3.847987
 30
0.0
 11
0.529612
 21
-3.847987
 31
0.0
  0
LINE
  5
66D
100
AcDbEntity
  8
0
  6
BYBLOCK
 62
     0
100
AcDbLine
 10
1.319612
 20
-3.847987
 30
0.0
 11
1.499612
 21
-3.847987
 31
0.0
  0
SOLID
  5
66E
100
AcDbEntity
  8
0
  6
BYBLOCK
 62
     0
100
AcDbTrace
 10
0.709612
 20
-3.817987
 30
0.0
 11
0.709612
 21
-3.877987
 31
0.0
 12
0.889612
 22
-3.847987
 32
0.0
 13
0.889612
 23
-3.847987
 33
0.0
  0
SOLID
  5
66F
100
AcDbEntity
  8
0
  6
BYBLOCK
 62
     0
100
AcDbTrace
 10
1.319612
 20
-3.817987
 30
0.0
 11
1.319612
 21
-3.877987
 31
0.0
 12
1.139612
 22
-3.847987
 32
0.0
 13
1.139612
 23
-3.847987
 33
0.0
  0
MTEXT
  5
670
100
AcDbEntity
  8
0
  6
BYBLOCK
 62
     0
100
AcDbMText
 10
2.384612
 20
-3.847987
 30
0.0
 40
0.18
 41
0.0
 71
     5
 72
     1
  1
\A1;.250 X .125\PKEYWAY\PTYP.
  0
POINT
  5
671
100
AcDbEntity
  8
DEFPOINTS
  6
BYBLOCK
 62
     0
100
AcDbPoint
 10
0.889612
 20
-3.057716
 30
0.0
  0
POINT
  5
672
100
AcDbEntity
  8
DEFPOINTS
  6
BYBLOCK
 62
     0
100
AcDbPoint
 10
1.139612
 20
-3.057716
 30
0.0
  0
POINT
  5
673
100
AcDbEntity
  8
DEFPOINTS
  6
BYBLOCK
 62
     0
100
AcDbPoint
 10
1.139612
 20
-3.847987
 30
0.0
  0
ENDBLK
  5
674
100
AcDbEntity
  8
0
100
AcDbBlockEnd
  0
BLOCK
  5
69B
100
AcDbEntity
  8
0
100
AcDbBlockBegin
  2
*D31
 70
     1
 10
0.0
 20
0.0
 30
0.0
  3
*D31
  1

  0
LINE
  5
69C
100
AcDbEntity
  8
0
  6
BYBLOCK
 62
     0
100
AcDbLine
 10
0.512112
 20
-3.057716
 30
0.0
 11
-1.781901
 21
-3.057716
 31
0.0
  0
LINE
  5
69D
100
AcDbEntity
  8
0
  6
BYBLOCK
 62
     0
100
AcDbLine
 10
-0.985388
 20
-0.307716
 30
0.0
 11
-1.781901
 21
-0.307716
 31
0.0
  0
LINE
  5
69E
100
AcDbEntity
  8
0
  6
BYBLOCK
 62
     0
100
AcDbLine
 10
-1.601901
 20
-2.877716
 30
0.0
 11
-1.601901
 21
-2.012716
 31
0.0
  0
LINE
  5
69F
100
AcDbEntity
  8
0
  6
BYBLOCK
 62
     0
100
AcDbLine
 10
-1.601901
 20
-0.487716
 30
0.0
 11
-1.601901
 21
-1.352716
 31
0.0
  0
SOLID
  5
6A0
100
AcDbEntity
  8
0
  6
BYBLOCK
 62
     0
100
AcDbTrace
 10
-1.631901
 20
-2.877716
 30
0.0
 11
-1.571901
 21
-2.877716
 31
0.0
 12
-1.601901
 22
-3.057716
 32
0.0
 13
-1.601901
 23
-3.057716
 33
0.0
  0
SOLID
  5
6A1
100
AcDbEntity
  8
0
  6
BYBLOCK
 62
     0
100
AcDbTrace
 10
-1.631901
 20
-0.487716
 30
0.0
 11
-1.571901
 21
-0.487716
 31
0.0
 12
-1.601901
 22
-0.307716
 32
0.0
 13
-1.601901
 23
-0.307716
 33
0.0
  0
MTEXT
  5
6A2
100
AcDbEntity
  8
0
  6
BYBLOCK
 62
     0
100
AcDbMText
 10
-1.601901
 20
-1.682716
 30
0.0
 40
0.18
 41
0.0
 71
     5
 72
     1
  1
\A1;2.750\PTYP.
  0
POINT
  5
6A3
100
AcDbEntity
  8
DEFPOINTS
  6
BYBLOCK
 62
     0
100
AcDbPoint
 10
0.574612
 20
-3.057716
 30
0.0
  0
POINT
  5
6A4
100
AcDbEntity
  8
DEFPOINTS
  6
BYBLOCK
 62
     0
100
AcDbPoint
 10
-0.922888
 20
-0.307716
 30
0.0
  0
POINT
  5
6A5
100
AcDbEntity
  8
DEFPOINTS
  6
BYBLOCK
 62
     0
100
AcDbPoint
 10
-1.601901
 20
-0.307716
 30
0.0
  0
ENDBLK
  5
6A6
100
AcDbEntity
  8
0
100
AcDbBlockEnd
  0
BLOCK
  5
6CB
100
AcDbEntity
  8
0
100
AcDbBlockBegin
  2
*D32
 70
     1
 10
0.0
 20
0.0
 30
0.0
  3
*D32
  1

  0
LINE
  5
6CC
100
AcDbEntity
  8
0
  6
BYBLOCK
 62
     0
100
AcDbLine
 10
2.921612
 20
0.442284
 30
0.0
 11
3.808708
 21
0.442284
 31
0.0
  0
LINE
  5
6CD
100
AcDbEntity
  8
0
  6
BYBLOCK
 62
     0
100
AcDbLine
 10
3.014612
 20
-0.307716
 30
0.0
 11
3.808708
 21
-0.307716
 31
0.0
  0
LINE
  5
6CE
100
AcDbEntity
  8
0
  6
BYBLOCK
 62
     0
100
AcDbLine
 10
3.628708
 20
0.262284
 30
0.0
 11
3.628708
 21
-0.127716
 31
0.0
  0
LINE
  5
6CF
100
AcDbEntity
  8
0
  6
BYBLOCK
 62
     0
100
AcDbLine
 10
3.628708
 20
-0.307716
 30
0.0
 11
3.628708
 21
-0.90614
 31
0.0
  0
LINE
  5
6D0
100
AcDbEntity
  8
0
  6
BYBLOCK
 62
     0
100
AcDbLine
 10
3.628708
 20
-0.90614
 30
0.0
 11
3.448708
 21
-0.90614
 31
0.0
  0
SOLID
  5
6D1
100
AcDbEntity
  8
0
  6
BYBLOCK
 62
     0
100
AcDbTrace
 10
3.598708
 20
0.262284
 30
0.0
 11
3.658708
 21
0.262284
 31
0.0
 12
3.628708
 22
0.442284
 32
0.0
 13
3.628708
 23
0.442284
 33
0.0
  0
SOLID
  5
6D2
100
AcDbEntity
  8
0
  6
BYBLOCK
 62
     0
100
AcDbTrace
 10
3.598708
 20
-0.127716
 30
0.0
 11
3.658708
 21
-0.127716
 31
0.0
 12
3.628708
 22
-0.307716
 32
0.0
 13
3.628708
 23
-0.307716
 33
0.0
  0
MTEXT
  5
6D3
100
AcDbEntity
  8
0
  6
BYBLOCK
 62
     0
100
AcDbMText
 10
3.088708
 20
-0.90614
 30
0.0
 40
0.18
 41
0.0
 71
     5
 72
     1
  1
\A1;.75\PTYP.
  0
POINT
  5
6D4
100
AcDbEntity
  8
DEFPOINTS
  6
BYBLOCK
 62
     0
100
AcDbPoint
 10
2.859112
 20
0.442284
 30
0.0
  0
POINT
  5
6D5
100
AcDbEntity
  8
DEFPOINTS
  6
BYBLOCK
 62
     0
100
AcDbPoint
 10
2.952112
 20
-0.307716
 30
0.0
  0
POINT
  5
6D6
100
AcDbEntity
  8
DEFPOINTS
  6
BYBLOCK
 62
     0
100
AcDbPoint
 10
3.628708
 20
-0.307716
 30
0.0
  0
ENDBLK
  5
6D7
100
AcDbEntity
  8
0
100
AcDbBlockEnd
  0
BLOCK
  5
6F3
100
AcDbEntity
  8
0
100
AcDbBlockBegin
  2
*D33
 70
     1
 10
0.0
 20
0.0
 30
0.0
  3
*D33
  1

  0
LINE
  5
6F4
100
AcDbEntity
  8
0
  6
BYBLOCK
 62
     0
100
AcDbLine
 10
2.764612
 20
3.330482
 30
0.0
 11
2.764612
 21
9.036278
 31
0.0
  0
LINE
  5
6F5
100
AcDbEntity
  8
0
  6
BYBLOCK
 62
     0
100
AcDbLine
 10
1.014612
 20
8.072713
 30
0.0
 11
1.014612
 21
9.036278
 31
0.0
  0
LINE
  5
6F6
100
AcDbEntity
  8
0
  6
BYBLOCK
 62
     0
100
AcDbLine
 10
2.584612
 20
8.856278
 30
0.0
 11
2.294612
 21
8.856278
 31
0.0
  0
LINE
  5
6F7
100
AcDbEntity
  8
0
  6
BYBLOCK
 62
     0
100
AcDbLine
 10
1.194612
 20
8.856278
 30
0.0
 11
1.484612
 21
8.856278
 31
0.0
  0
SOLID
  5
6F8
100
AcDbEntity
  8
0
  6
BYBLOCK
 62
     0
100
AcDbTrace
 10
2.584612
 20
8.886278
 30
0.0
 11
2.584612
 21
8.826278
 31
0.0
 12
2.764612
 22
8.856278
 32
0.0
 13
2.764612
 23
8.856278
 33
0.0
  0
SOLID
  5
6F9
100
AcDbEntity
  8
0
  6
BYBLOCK
 62
     0
100
AcDbTrace
 10
1.194612
 20
8.886278
 30
0.0
 11
1.194612
 21
8.826278
 31
0.0
 12
1.014612
 22
8.856278
 32
0.0
 13
1.014612
 23
8.856278
 33
0.0
  0
MTEXT
  5
6FA
100
AcDbEntity
  8
0
  6
BYBLOCK
 62
     0
100
AcDbMText
 10
1.889612
 20
8.856278
 30
0.0
 40
0.18
 41
0.0
 71
     5
 72
     1
  1
\A1;1.750\PTYP.
  0
POINT
  5
6FB
100
AcDbEntity
  8
DEFPOINTS
  6
BYBLOCK
 62
     0
100
AcDbPoint
 10
2.764612
 20
3.267982
 30
0.0
  0
POINT
  5
6FC
100
AcDbEntity
  8
DEFPOINTS
  6
BYBLOCK
 62
     0
100
AcDbPoint
 10
1.014612
 20
8.010213
 30
0.0
  0
POINT
  5
6FD
100
AcDbEntity
  8
DEFPOINTS
  6
BYBLOCK
 62
     0
100
AcDbPoint
 10
1.014612
 20
8.856278
 30
0.0
  0
ENDBLK
  5
6FE
100
AcDbEntity
  8
0
100
AcDbBlockEnd
  0
BLOCK
  5
7BF
100
AcDbEntity
  8
0
100
AcDbBlockBegin
  2
*D34
 70
     1
 10
0.0
 20
0.0
 30
0.0
  3
*D34
  1

  0
LINE
  5
7C0
100
AcDbEntity
  8
0
  6
BYBLOCK
 62
     0
100
AcDbLine
 10
-14.122819
 20
4.659777
 30
0.0
 11
-13.942819
 21
4.659777
 31
0.0
  0
LINE
  5
7C1
100
AcDbEntity
  8
0
  6
BYBLOCK
 62
     0
100
AcDbLine
 10
-13.942819
 20
4.659777
 30
0.0
 11
-10.426102
 21
4.94581
 31
0.0
  0
MTEXT
  5
7C2
100
AcDbEntity
  8
0
  6
BYBLOCK
 62
     0
100
AcDbMText
 10
-14.812819
 20
4.659777
 30
0.0
 40
0.18
 41
0.0
 71
     5
 72
     1
  1
\A1;SPANNER\PWRENCH\PHOLES
  0
SOLID
  5
7C3
100
AcDbEntity
  8
0
  6
BYBLOCK
 62
     0
100
AcDbTrace
 10
-10.428534
 20
4.975711
 30
0.0
 11
-10.42367
 21
4.915909
 31
0.0
 12
-10.246694
 22
4.960402
 32
0.0
 13
-10.246694
 23
4.960402
 33
0.0
  0
LINE
  5
7C4
100
AcDbEntity
  8
0
  6
BYBLOCK
 62
     0
100
AcDbLine
 10
-10.212106
 20
4.970535
 30
0.0
 11
-10.032106
 21
4.970535
 31
0.0
  0
LINE
  5
7C5
100
AcDbEntity
  8
0
  6
BYBLOCK
 62
     0
100
AcDbLine
 10
-10.122106
 20
4.880535
 30
0.0
 11
-10.122106
 21
5.060535
 31
0.0
  0
POINT
  5
7C6
100
AcDbEntity
  8
DEFPOINTS
  6
BYBLOCK
 62
     0
100
AcDbPoint
 10
-10.246694
 20
4.960402
 30
0.0
  0
POINT
  5
7C7
100
AcDbEntity
  8
DEFPOINTS
  6
BYBLOCK
 62
     0
100
AcDbPoint
 10
-9.997517
 20
4.980669
 30
0.0
  0
ENDBLK
  5
7C8
100
AcDbEntity
  8
0
100
AcDbBlockEnd
  0
BLOCK
  5
7E6
100
AcDbEntity
  8
0
100
AcDbBlockBegin
  2
TITLE_BLOCK
 70
     0
 10
0.0
 20
0.0
 30
0.0
  3
TITLE_BLOCK
  1

  0
TEXT
  5
7D8
100
AcDbEntity
  8
DIMS_TEXT
100
AcDbText
 10
-2.625251
 20
-1.013129
 30
0.0
 40
0.2
  1
HAR121   135818(C1)/135817(C2)   1:1
 41
0.7
100
AcDbText
  0
TEXT
  5
7D9
100
AcDbEntity
  8
DIMS_TEXT
100
AcDbText
 10
-2.687755
 20
-0.107889
 30
0.0
 40
0.15
  1
Tel. (508) 278-2422     Fax (508) 278-7863
 41
0.9
100
AcDbText
  0
TEXT
  5
7DA
100
AcDbEntity
  8
DIMS_TEXT
100
AcDbText
 10
-2.413383
 20
0.524379
 30
0.0
 40
0.2
  1
Two Way Right Angle Gear Drive
 41
0.9
100
AcDbText
  0
TEXT
  5
7DB
100
AcDbEntity
  8
DIMS_TEXT
100
AcDbText
 10
-1.826671
 20
0.987066
 30
0.0
 40
0.3
  1
 MITRPAK
 41
1.5
100
AcDbText
  0
LINE
  5
7DC
100
AcDbEntity
  8
DIMS_TEXT
100
AcDbLine
 10
-2.723037
 20
-0.533096
 30
0.0
 11
2.500333
 21
-0.533096
 31
0.0
  0
LINE
  5
7DD
100
AcDbEntity
  8
DIMS_TEXT
100
AcDbLine
 10
-2.723037
 20
-0.199514
 30
0.0
 11
2.500333
 21
-0.199514
 31
0.0
  0
LINE
  5
7DE
100
AcDbEntity
  8
DIMS_TEXT
100
AcDbLine
 10
-2.723037
 20
0.125931
 30
0.0
 11
2.500333
 21
0.125931
 31
0.0
  0
LINE
  5
7DF
100
AcDbEntity
  8
DIMS_TEXT
100
AcDbLine
 10
-2.723037
 20
0.451377
 30
0.0
 11
2.500333
 21
0.451377
 31
0.0
  0
LINE
  5
7E0
100
AcDbEntity
  8
DIMS_TEXT
100
AcDbLine
 10
-2.723037
 20
0.874457
 30
0.0
 11
2.500333
 21
0.874457
 31
0.0
  0
TEXT
  5
7E1
100
AcDbEntity
  8
DIMS_TEXT
100
AcDbText
 10
-2.6334
 20
-0.468007
 30
0.0
 40
0.2
  1
MODEL   PART NUMBER  RATIO
100
AcDbText
  0
LWPOLYLINE
  5
7E2
100
AcDbEntity
  8
DIMS_TEXT
100
AcDbPolyline
 90
        4
 70
     1
 43
0.0
 10
-2.723037
 20
1.39517
 10
2.500333
 20
1.39517
 10
2.500333
 20
-1.143307
 10
-2.723037
 20
-1.143307
  0
TEXT
  5
7E3
100
AcDbEntity
  8
DIMS_TEXT
100
AcDbText
 10
-2.687755
 20
0.215921
 30
0.0
 40
0.15
  1
Uxbridge, MA 01569              U.S.A.
100
AcDbText
  0
LINE
  5
7E4
100
AcDbEntity
  8
DIMS_TEXT
100
AcDbLine
 10
-1.394785
 20
-0.199514
 30
0.0
 11
-1.394785
 21
-1.143307
 31
0.0
  0
LINE
  5
7E5
100
AcDbEntity
  8
DIMS_TEXT
100
AcDbLine
 10
1.294313
 20
-0.199514
 30
0.0
 11
1.294313
 21
-1.143307
 31
0.0
  0
ENDBLK
  5
7E7
100
AcDbEntity
  8
0
100
AcDbBlockEnd
  0
ENDSEC
  0
SECTION
  2
ENTITIES
  0
CIRCLE
  5
214
100
AcDbEntity
  8
0
100
AcDbCircle
 10
-9.422975
 20
5.692284
 30
0.0
 40
1.4175
  0
DIMENSION
  5
215
100
AcDbEntity
  8
DIMS_TEXT
100
AcDbDimension
  2
*D15
 10
-7.922975
 20
9.069159
 30
0.0
 11
-8.832927
 21
9.069159
 31
0.0
 70
   160
  1
3.000\PTYP.
  3
STANDARD
100
AcDbAlignedDimension
 13
-10.922975
 23
7.7228
 33
0.0
 14
-7.922975
 24
7.7228
 34
0.0
100
AcDbRotatedDimension
1001
ACAD
1000
DSTYLE
1002
{
1070
    78
1070
     4
1070
   288
1070
     1
1070
   284
1070
     4
1070
   140
1040
0.15
1070
   272
1070
     0
1070
   271
1070
     2
1002
}
  0
DIMENSION
  5
216
100
AcDbEntity
  8
DIMS_TEXT
100
AcDbDimension
  2
*D16
 10
-9.422975
 20
8.584695
 30
0.0
 11
-10.167982
 21
8.584695
 31
0.0
 70
   160
  1
1.500\PTYP.
  3
STANDARD
100
AcDbAlignedDimension
 13
-10.922975
 23
7.7228
 33
0.0
 14
-9.422975
 24
7.7228
 34
0.0
100
AcDbRotatedDimension
1001
ACAD
1000
DSTYLE
1002
{
1070
    78
1070
     4
1070
   288
1070
     1
1070
   284
1070
     4
1070
   140
1040
0.15
1070
   272
1070
     0
1070
   271
1070
     2
1002
}
  0
LINE
  5
217
100
AcDbEntity
  8
CTR_LINES
100
AcDbLine
 10
-11.5871
 20
4.192284
 30
0.0
 11
-7.102724
 21
4.192284
 31
0.0
  0
LINE
  5
218
100
AcDbEntity
  8
CTR_LINES
100
AcDbLine
 10
-11.5871
 20
7.192284
 30
0.0
 11
-7.05584
 21
7.192284
 31
0.0
  0
DIMENSION
  5
21C
100
AcDbEntity
  8
DIMS_TEXT
100
AcDbDimension
  2
*D17
 10
-7.422975
 20
9.945318
 30
0.0
 11
-9.465085
 21
9.945318
 31
0.0
 70
   160
  1
4.000
  3
STANDARD
100
AcDbAlignedDimension
 13
-11.422975
 23
7.942284
 33
0.0
 14
-7.422975
 24
7.942284
 34
0.0
100
AcDbRotatedDimension
1001
ACAD
1000
DSTYLE
1002
{
1070
    78
1070
     4
1070
   284
1070
     4
1070
   140
1040
0.15
1070
   272
1070
     0
1070
   271
1070
     2
1002
}
  0
DIMENSION
  5
21D
100
AcDbEntity
  8
DIMS_TEXT
100
AcDbDimension
  2
*D18
 10
-9.422975
 20
9.491777
 30
0.0
 11
-10.422975
 21
9.491777
 31
0.0
 70
   160
  1
2.000
  3
STANDARD
100
AcDbAlignedDimension
 13
-11.422975
 23
7.942284
 33
0.0
 14
-9.422975
 24
7.942284
 34
0.0
100
AcDbRotatedDimension
1001
ACAD
1000
DSTYLE
1002
{
1070
    78
1070
     4
1070
   284
1070
     4
1070
   140
1040
0.15
1070
   272
1070
     0
1070
   271
1070
     2
1002
}
  0
LINE
  5
21E
100
AcDbEntity
  8
0
100
AcDbLine
 10
-10.390975
 20
0.442284
 30
0.0
 11
-8.672975
 21
0.442284
 31
0.0
  0
LINE
  5
21F
100
AcDbEntity
  8
0
100
AcDbLine
 10
-10.172975
 20
2.442284
 30
0.0
 11
-8.672975
 21
2.442284
 31
0.0
  0
LINE
  5
220
100
AcDbEntity
  8
0
100
AcDbLine
 10
-10.265975
 20
3.442284
 30
0.0
 11
-8.454975
 21
3.442284
 31
0.0
  0
LINE
  5
223
100
AcDbEntity
  8
0
100
AcDbLine
 10
-11.422975
 20
7.942284
 30
0.0
 11
-7.422975
 21
7.942284
 31
0.0
  0
LINE
  5
224
100
AcDbEntity
  8
0
100
AcDbLine
 10
-10.923475
 20
7.629784
 30
0.0
 11
-7.922475
 21
7.629784
 31
0.0
  0
LINE
  5
226
100
AcDbEntity
  8
0
100
AcDbLine
 10
-10.923475
 20
3.754784
 30
0.0
 11
-7.922475
 21
3.754784
 31
0.0
  0
DIMENSION
  5
228
100
AcDbEntity
  8
DIMS_TEXT
100
AcDbDimension
  2
*D19
 10
5.205603
 20
5.692284
 30
0.0
 11
5.205603
 21
4.334766
 31
0.0
 70
   160
  1
2.750
  3
STANDARD
100
AcDbAlignedDimension
 13
3.439132
 23
2.942284
 33
0.0
 14
4.452112
 24
5.692284
 34
0.0
 50
90.0
100
AcDbRotatedDimension
1001
ACAD
1000
DSTYLE
1002
{
1070
    78
1070
     4
1070
   288
1070
     1
1070
   284
1070
     4
1070
   140
1040
0.15
1070
   272
1070
     0
1070
   271
1070
     2
1002
}
  0
LINE
  5
229
100
AcDbEntity
  8
CTR_LINES
100
AcDbLine
 10
-10.922975
 20
3.696716
 30
0.0
 11
-10.922975
 21
7.7228
 31
0.0
  0
LINE
  5
22A
100
AcDbEntity
  8
0
100
AcDbLine
 10
-11.422975
 20
2.442284
 30
0.0
 11
-11.422975
 21
3.442284
 31
0.0
  0
LINE
  5
22D
100
AcDbEntity
  8
0
100
AcDbLine
 10
2.843026
 20
3.436097
 30
0.0
 11
2.921252
 21
3.409532
 31
0.0
  0
ARC
  5
22F
100
AcDbEntity
  8
0
100
AcDbCircle
 10
-10.265975
 20
3.535284
 30
0.0
 40
0.093
100
AcDbArc
 50
270.0
 51
0.0
  0
ARC
  5
230
100
AcDbEntity
  8
0
100
AcDbCircle
 10
-11.265975
 20
3.535284
 30
0.0
 40
0.093
100
AcDbArc
 50
270.0
 51
360.0
  0
ARC
  5
232
100
AcDbEntity
  8
0
100
AcDbCircle
 10
0.171612
 20
3.535284
 30
0.0
 40
0.093
100
AcDbArc
 50
270.0
 51
0.0
  0
ARC
  5
233
100
AcDbEntity
  8
0
100
AcDbCircle
 10
1.857612
 20
3.535284
 30
0.0
 40
0.093
100
AcDbArc
 50
180.0
 51
270.0
  0
CIRCLE
  5
234
100
AcDbEntity
  8
0
100
AcDbCircle
 10
2.764612
 20
2.942284
 30
0.0
 40
0.5
  0
CIRCLE
  5
235
100
AcDbEntity
  8
0
100
AcDbCircle
 10
-0.735388
 20
2.942284
 30
0.0
 40
0.5
  0
LINE
  5
236
100
AcDbEntity
  8
CTR_LINES
100
AcDbLine
 10
1.014612
 20
-3.465719
 30
0.0
 11
1.014612
 21
8.400742
 31
0.0
  0
LINE
  5
238
100
AcDbEntity
  8
0
100
AcDbLine
 10
-0.922888
 20
-0.307716
 30
0.0
 11
2.952112
 21
-0.307716
 31
0.0
  0
LINE
  5
23A
100
AcDbEntity
  8
0
100
AcDbLine
 10
1.857612
 20
0.442284
 30
0.0
 11
2.859112
 21
0.442284
 31
0.0
  0
LINE
  5
23C
100
AcDbEntity
  8
0
100
AcDbLine
 10
0.264612
 20
0.535284
 30
0.0
 11
0.264612
 21
2.349297
 31
0.0
  0
LINE
  5
23D
100
AcDbEntity
  8
0
100
AcDbLine
 10
1.764612
 20
0.535284
 30
0.0
 11
1.764612
 21
2.349276
 31
0.0
  0
LINE
  5
23E
100
AcDbEntity
  8
0
100
AcDbLine
 10
-0.735388
 20
2.356622
 30
0.0
 11
-0.735388
 21
0.535284
 31
0.0
  0
LINE
  5
23F
100
AcDbEntity
  8
0
100
AcDbLine
 10
-0.828388
 20
0.442284
 30
0.0
 11
0.171612
 21
0.442284
 31
0.0
  0
LINE
  5
244
100
AcDbEntity
  8
0
100
AcDbLine
 10
-0.922888
 20
-0.307716
 30
0.0
 11
-0.922888
 21
0.349284
 31
0.0
  0
ARC
  5
245
100
AcDbEntity
  8
0
100
AcDbCircle
 10
-0.829888
 20
0.349284
 30
0.0
 40
0.093
100
AcDbArc
 50
90.0
 51
180.0
  0
ARC
  5
246
100
AcDbEntity
  8
0
100
AcDbCircle
 10
-0.828388
 20
0.535284
 30
0.0
 40
0.093
100
AcDbArc
 50
270.0
 51
0.0
  0
LINE
  5
247
100
AcDbEntity
  8
0
100
AcDbLine
 10
-0.829888
 20
0.442284
 30
0.0
 11
-0.828388
 21
0.442284
 31
0.0
  0
ARC
  5
248
100
AcDbEntity
  8
0
100
AcDbCircle
 10
0.171612
 20
0.535284
 30
0.0
 40
0.093
100
AcDbArc
 50
270.0
 51
0.0
  0
ARC
  5
249
100
AcDbEntity
  8
0
100
AcDbCircle
 10
1.857612
 20
0.535284
 30
0.0
 40
0.093
100
AcDbArc
 50
180.0
 51
270.0
  0
LINE
  5
24A
100
AcDbEntity
  8
CTR_LINES
100
AcDbLine
 10
-1.385217
 20
2.942284
 30
0.0
 11
-0.028369
 21
2.942284
 31
0.0
  0
LINE
  5
24C
100
AcDbEntity
  8
CTR_LINES
100
AcDbLine
 10
-1.385217
 20
2.942284
 30
0.0
 11
-0.028369
 21
2.942284
 31
0.0
  0
LINE
  5
24D
100
AcDbEntity
  8
0
100
AcDbLine
 10
-0.735388
 20
2.262147
 30
0.0
 11
-0.735388
 21
2.356622
 31
0.0
  0
CIRCLE
  5
24E
100
AcDbEntity
  8
0
100
AcDbCircle
 10
-0.731709
 20
2.942284
 30
0.0
 40
0.195
  0
LINE
  5
24F
100
AcDbEntity
  8
CTR_LINES
100
AcDbLine
 10
-0.731709
 20
2.580551
 30
0.0
 11
-0.731709
 21
3.267027
 31
0.0
  0
LINE
  5
250
100
AcDbEntity
  8
0
100
AcDbLine
 10
-0.813803
 20
2.448471
 30
0.0
 11
-0.841878
 21
2.459203
 31
0.0
  0
LINE
  5
252
100
AcDbEntity
  8
0
100
AcDbLine
 10
0.264612
 20
1.567284
 30
0.0
 11
1.764612
 21
1.567284
 31
0.0
  0
LINE
  5
255
100
AcDbEntity
  8
0
100
AcDbLine
 10
2.764612
 20
2.281224
 30
0.0
 11
2.764612
 21
0.535278
 31
0.0
  0
LINE
  5
25A
100
AcDbEntity
  8
0
100
AcDbLine
 10
2.952112
 20
-0.307716
 30
0.0
 11
2.952112
 21
0.349284
 31
0.0
  0
ARC
  5
25B
100
AcDbEntity
  8
0
100
AcDbCircle
 10
2.859112
 20
0.349284
 30
0.0
 40
0.093
100
AcDbArc
 50
0.0
 51
90.462068
  0
ARC
  5
25C
100
AcDbEntity
  8
0
100
AcDbCircle
 10
2.857612
 20
0.535278
 30
0.0
 40
0.093
100
AcDbArc
 50
180.0
 51
270.462068
  0
LINE
  5
25D
100
AcDbEntity
  8
0
100
AcDbLine
 10
2.764612
 20
0.442284
 30
0.0
 11
2.859112
 21
0.442284
 31
0.0
  0
CIRCLE
  5
25E
100
AcDbEntity
  8
0
100
AcDbCircle
 10
2.764612
 20
2.942284
 30
0.0
 40
0.195
  0
LINE
  5
25F
100
AcDbEntity
  8
CTR_LINES
100
AcDbLine
 10
2.125358
 20
2.942284
 30
0.0
 11
3.439132
 21
2.942284
 31
0.0
  0
LINE
  5
260
100
AcDbEntity
  8
CTR_LINES
100
AcDbLine
 10
2.125358
 20
2.942284
 30
0.0
 11
3.439132
 21
2.942284
 31
0.0
  0
LINE
  5
261
100
AcDbEntity
  8
CTR_LINES
100
AcDbLine
 10
2.764612
 20
2.612709
 30
0.0
 11
2.764612
 21
3.267982
 31
0.0
  0
LINE
  5
264
100
AcDbEntity
  8
0
100
AcDbLine
 10
-11.359975
 20
0.349284
 30
0.0
 11
-11.359975
 21
1.468419
 31
0.0
  0
LINE
  5
265
100
AcDbEntity
  8
0
100
AcDbLine
 10
-10.172975
 20
0.535284
 30
0.0
 11
-10.172975
 21
2.349284
 31
0.0
  0
LINE
  5
266
100
AcDbEntity
  8
0
100
AcDbLine
 10
-11.172975
 20
0.535284
 30
0.0
 11
-11.172975
 21
2.349284
 31
0.0
  0
LINE
  5
26B
100
AcDbEntity
  8
0
100
AcDbLine
 10
-11.359975
 20
-0.307716
 30
0.0
 11
-11.359975
 21
0.349284
 31
0.0
  0
LINE
  5
26C
100
AcDbEntity
  8
0
100
AcDbLine
 10
-11.266975
 20
0.442284
 30
0.0
 11
-10.390975
 21
0.442284
 31
0.0
  0
ARC
  5
26D
100
AcDbEntity
  8
0
100
AcDbCircle
 10
-11.265975
 20
0.535284
 30
0.0
 40
0.093
100
AcDbArc
 50
270.0
 51
0.0
  0
ARC
  5
26E
100
AcDbEntity
  8
0
100
AcDbCircle
 10
-11.266975
 20
0.349284
 30
0.0
 40
0.093
100
AcDbArc
 50
90.0
 51
180.0
  0
LINE
  5
26F
100
AcDbEntity
  8
0
100
AcDbLine
 10
-11.266975
 20
0.442284
 30
0.0
 11
-11.265975
 21
0.442284
 31
0.0
  0
ARC
  5
270
100
AcDbEntity
  8
0
100
AcDbCircle
 10
-10.265975
 20
0.535284
 30
0.0
 40
0.093
100
AcDbArc
 50
270.0
 51
360.0
  0
LINE
  5
271
100
AcDbEntity
  8
0
100
AcDbLine
 10
-10.390975
 20
0.442284
 30
0.0
 11
-10.265975
 21
0.442284
 31
0.0
  0
LINE
  5
273
100
AcDbEntity
  8
0
100
AcDbLine
 10
-11.359975
 20
1.567284
 30
0.0
 11
-11.359975
 21
1.567284
 31
0.0
  0
LINE
  5
274
100
AcDbEntity
  8
0
100
AcDbLine
 10
-11.265975
 20
2.442284
 30
0.0
 11
-10.265975
 21
2.442284
 31
0.0
  0
ARC
  5
275
100
AcDbEntity
  8
0
100
AcDbCircle
 10
-11.265975
 20
2.349284
 30
0.0
 40
0.093
100
AcDbArc
 50
0.0
 51
90.0
  0
LINE
  5
276
100
AcDbEntity
  8
0
100
AcDbLine
 10
-11.422975
 20
2.442284
 30
0.0
 11
-11.265975
 21
2.442284
 31
0.0
  0
ARC
  5
277
100
AcDbEntity
  8
0
100
AcDbCircle
 10
-10.265975
 20
2.349284
 30
0.0
 40
0.093
100
AcDbArc
 50
0.0
 51
90.0
  0
LINE
  5
278
100
AcDbEntity
  8
0
100
AcDbLine
 10
-10.390975
 20
2.442284
 30
0.0
 11
-10.172975
 21
2.442284
 31
0.0
  0
DIMENSION
  5
279
100
AcDbEntity
  8
DIMS_TEXT
100
AcDbDimension
  2
*D20
 10
5.205603
 20
5.692284
 30
0.0
 11
5.205603
 21
6.629708
 31
0.0
 70
   160
  1
1.750
  3
STANDARD
100
AcDbAlignedDimension
 13
1.209612
 23
7.442284
 33
0.0
 14
4.452112
 24
5.692284
 34
0.0
 50
90.0
100
AcDbRotatedDimension
1001
ACAD
1000
DSTYLE
1002
{
1070
    78
1070
     4
1070
   288
1070
     1
1070
   284
1070
     4
1070
   140
1040
0.15
1070
   272
1070
     0
1070
   271
1070
     2
1002
}
  0
DIMENSION
  5
27B
100
AcDbEntity
  8
DIMS_TEXT
100
AcDbDimension
  2
*D21
 10
4.264612
 20
9.506803
 30
0.0
 11
1.008865
 21
9.506803
 31
0.0
 70
   160
  1
6.500
  3
STANDARD
100
AcDbAlignedDimension
 13
-2.235388
 23
7.629784
 33
0.0
 14
4.264612
 24
7.629784
 34
0.0
100
AcDbRotatedDimension
1001
ACAD
1000
DSTYLE
1002
{
1070
    78
1070
     4
1070
   284
1070
     4
1070
   140
1040
0.15
1070
   172
1070
     1
1070
   272
1070
     0
1070
    40
1040
1.086872
1070
   271
1070
     2
1002
}
  0
TEXT
  5
27C
100
AcDbEntity
  8
0
  6
DASHED2
100
AcDbText
 10
-0.56551
 20
5.829586
 30
0.0
 40
0.5
  1
MITRPAK
 72
     4
 11
1.017823
 21
6.079586
 31
0.0
100
AcDbText
  0
LINE
  5
27D
100
AcDbEntity
  8
0
100
AcDbLine
 10
1.600274
 20
7.442284
 30
0.0
 11
3.421612
 21
7.442284
 31
0.0
  0
LINE
  5
27E
100
AcDbEntity
  8
0
100
AcDbLine
 10
1.675671
 20
7.442284
 30
0.0
 11
3.421612
 21
7.442284
 31
0.0
  0
LINE
  5
27F
100
AcDbEntity
  8
0
100
AcDbLine
 10
1.607612
 20
6.442284
 30
0.0
 11
3.421612
 21
6.442284
 31
0.0
  0
LINE
  5
280
100
AcDbEntity
  8
0
  6
CONTINUOUS
100
AcDbLine
 10
1.857612
 20
4.442284
 30
0.0
 11
3.421612
 21
4.442284
 31
0.0
  0
LINE
  5
281
100
AcDbEntity
  8
0
100
AcDbLine
 10
1.857612
 20
3.442284
 30
0.0
 11
2.764612
 21
3.442284
 31
0.0
  0
DIMENSION
  5
282
100
AcDbEntity
  8
DIMS_TEXT
100
AcDbDimension
  2
*D22
 10
1.014612
 20
8.855672
 30
0.0
 11
-0.610388
 21
8.855672
 31
0.0
 70
   160
  1
3.250\PTYP.
  3
STANDARD
100
AcDbAlignedDimension
 13
-2.235388
 23
7.629784
 33
0.0
 14
1.014612
 24
7.942284
 34
0.0
100
AcDbRotatedDimension
1001
ACAD
1000
DSTYLE
1002
{
1070
    78
1070
     4
1070
   284
1070
     4
1070
   140
1040
0.15
1070
   172
1070
     1
1070
   272
1070
     0
1070
    40
1040
1.086872
1070
   271
1070
     2
1002
}
  0
LINE
  5
285
100
AcDbEntity
  8
0
100
AcDbLine
 10
-2.235388
 20
3.754784
 30
0.0
 11
-2.235388
 21
7.629784
 31
0.0
  0
LINE
  5
287
100
AcDbEntity
  8
0
100
AcDbLine
 10
-1.485388
 20
4.349284
 30
0.0
 11
-1.485388
 21
6.535284
 31
0.0
  0
LINE
  5
288
100
AcDbEntity
  8
0
100
AcDbLine
 10
-0.735388
 20
3.442284
 30
0.0
 11
0.171612
 21
3.442284
 31
0.0
  0
LINE
  5
289
100
AcDbEntity
  8
0
  6
CONTINUOUS
100
AcDbLine
 10
-1.392388
 20
4.442284
 30
0.0
 11
0.171612
 21
4.442284
 31
0.0
  0
LINE
  5
28A
100
AcDbEntity
  8
0
100
AcDbLine
 10
-1.392388
 20
3.942284
 30
0.0
 11
-0.828388
 21
3.942284
 31
0.0
  0
LINE
  5
28B
100
AcDbEntity
  8
0
100
AcDbLine
 10
-1.485388
 20
4.107902
 30
0.0
 11
-1.485388
 21
3.847784
 31
0.0
  0
LINE
  5
28C
100
AcDbEntity
  8
0
100
AcDbLine
 10
-2.235388
 20
3.754784
 30
0.0
 11
-1.578388
 21
3.754784
 31
0.0
  0
ARC
  5
28D
100
AcDbEntity
  8
0
100
AcDbCircle
 10
-1.578388
 20
3.847784
 30
0.0
 40
0.093
100
AcDbArc
 50
270.0
 51
360.0
  0
ARC
  5
28E
100
AcDbEntity
  8
0
100
AcDbCircle
 10
-1.392388
 20
3.849284
 30
0.0
 40
0.093
100
AcDbArc
 50
90.0
 51
180.0
  0
LINE
  5
28F
100
AcDbEntity
  8
0
100
AcDbLine
 10
-1.485388
 20
3.847784
 30
0.0
 11
-1.485388
 21
3.849284
 31
0.0
  0
LINE
  5
294
100
AcDbEntity
  8
0
100
AcDbLine
 10
-1.485388
 20
4.349284
 30
0.0
 11
-1.485388
 21
4.21976
 31
0.0
  0
LINE
  5
295
100
AcDbEntity
  8
0
100
AcDbLine
 10
-1.485388
 20
4.107902
 30
0.0
 11
-1.485388
 21
4.21976
 31
0.0
  0
ARC
  5
296
100
AcDbEntity
  8
0
100
AcDbCircle
 10
-1.392388
 20
4.349284
 30
0.0
 40
0.093
100
AcDbArc
 50
90.0
 51
180.0
  0
LINE
  5
297
100
AcDbEntity
  8
0
100
AcDbLine
 10
-0.735388
 20
3.527946
 30
0.0
 11
-0.735388
 21
3.849284
 31
0.0
  0
ARC
  5
299
100
AcDbEntity
  8
0
100
AcDbCircle
 10
-0.828388
 20
3.849284
 30
0.0
 40
0.093
100
AcDbArc
 50
0.0
 51
90.0
  0
LINE
  5
29A
100
AcDbEntity
  8
0
100
AcDbLine
 10
0.264612
 20
3.942284
 30
0.0
 11
0.264612
 21
4.21976
 31
0.0
  0
LINE
  5
29B
100
AcDbEntity
  8
0
100
AcDbLine
 10
0.264612
 20
3.942284
 30
0.0
 11
0.264612
 21
4.048425
 31
0.0
  0
LINE
  5
29C
100
AcDbEntity
  8
0
100
AcDbLine
 10
0.264612
 20
3.942284
 30
0.0
 11
0.264612
 21
4.048425
 31
0.0
  0
LINE
  5
29D
100
AcDbEntity
  8
0
100
AcDbLine
 10
0.264612
 20
3.535284
 30
0.0
 11
0.264612
 21
3.849284
 31
0.0
  0
LINE
  5
29E
100
AcDbEntity
  8
0
100
AcDbLine
 10
0.264612
 20
3.849284
 30
0.0
 11
0.264612
 21
3.942284
 31
0.0
  0
LINE
  5
29F
100
AcDbEntity
  8
0
100
AcDbLine
 10
0.264612
 20
4.349284
 30
0.0
 11
0.264612
 21
4.21976
 31
0.0
  0
ARC
  5
2A0
100
AcDbEntity
  8
0
100
AcDbCircle
 10
0.171612
 20
4.349284
 30
0.0
 40
0.093
100
AcDbArc
 50
0.0
 51
90.0
  0
LINE
  5
2A1
100
AcDbEntity
  8
0
100
AcDbLine
 10
1.764612
 20
3.849284
 30
0.0
 11
1.764612
 21
4.083047
 31
0.0
  0
LINE
  5
2A2
100
AcDbEntity
  8
0
100
AcDbLine
 10
1.764612
 20
3.535284
 30
0.0
 11
1.764612
 21
3.849284
 31
0.0
  0
LINE
  5
2A3
100
AcDbEntity
  8
0
100
AcDbLine
 10
1.764612
 20
4.349284
 30
0.0
 11
1.764612
 21
4.237079
 31
0.0
  0
LINE
  5
2A4
100
AcDbEntity
  8
0
100
AcDbLine
 10
1.764612
 20
4.083047
 30
0.0
 11
1.764612
 21
4.237079
 31
0.0
  0
ARC
  5
2A5
100
AcDbEntity
  8
0
100
AcDbCircle
 10
1.857612
 20
4.349284
 30
0.0
 40
0.093
100
AcDbArc
 50
90.0
 51
180.0
  0
LINE
  5
2A6
100
AcDbEntity
  8
0
100
AcDbLine
 10
-1.392388
 20
7.442284
 30
0.0
 11
0.353552
 21
7.442284
 31
0.0
  0
LINE
  5
2A7
100
AcDbEntity
  8
0
100
AcDbLine
 10
-1.392388
 20
6.442284
 30
0.0
 11
0.421612
 21
6.442284
 31
0.0
  0
LINE
  5
2A8
100
AcDbEntity
  8
0
100
AcDbLine
 10
-1.485388
 20
6.535284
 30
0.0
 11
-1.485388
 21
7.535284
 31
0.0
  0
ARC
  5
2A9
100
AcDbEntity
  8
0
100
AcDbCircle
 10
-1.392388
 20
6.535284
 30
0.0
 40
0.093
100
AcDbArc
 50
180.0
 51
270.0
  0
LINE
  5
2AE
100
AcDbEntity
  8
0
100
AcDbLine
 10
-2.235388
 20
7.629784
 30
0.0
 11
-1.578388
 21
7.629784
 31
0.0
  0
ARC
  5
2AF
100
AcDbEntity
  8
0
100
AcDbCircle
 10
-1.578388
 20
7.536784
 30
0.0
 40
0.093
100
AcDbArc
 50
0.0
 51
90.0
  0
ARC
  5
2B0
100
AcDbEntity
  8
0
100
AcDbCircle
 10
-1.392388
 20
7.535284
 30
0.0
 40
0.093
100
AcDbArc
 50
180.0
 51
270.0
  0
LINE
  5
2B1
100
AcDbEntity
  8
0
100
AcDbLine
 10
-1.485388
 20
7.536784
 30
0.0
 11
-1.485388
 21
7.535284
 31
0.0
  0
LINE
  5
2B2
100
AcDbEntity
  8
0
100
AcDbLine
 10
0.514612
 20
7.442284
 30
0.0
 11
0.514612
 21
6.535284
 31
0.0
  0
LINE
  5
2B3
100
AcDbEntity
  8
0
100
AcDbLine
 10
1.514612
 20
7.442284
 30
0.0
 11
1.514612
 21
6.535284
 31
0.0
  0
ARC
  5
2B4
100
AcDbEntity
  8
0
100
AcDbCircle
 10
0.421612
 20
6.535284
 30
0.0
 40
0.093
100
AcDbArc
 50
270.0
 51
0.0
  0
ARC
  5
2B5
100
AcDbEntity
  8
0
100
AcDbCircle
 10
1.607612
 20
6.535284
 30
0.0
 40
0.093
100
AcDbArc
 50
180.0
 51
270.0
  0
CIRCLE
  5
2B6
100
AcDbEntity
  8
0
100
AcDbCircle
 10
1.014612
 20
7.442284
 30
0.0
 40
0.195
  0
LINE
  5
2B7
100
AcDbEntity
  8
CTR_LINES
  6
CENTER
100
AcDbLine
 10
0.652108
 20
7.442284
 30
0.0
 11
1.302208
 21
7.442284
 31
0.0
  0
CIRCLE
  5
2B8
100
AcDbEntity
  8
0
100
AcDbCircle
 10
1.014612
 20
7.442284
 30
0.0
 40
0.5
  0
LINE
  5
2BC
100
AcDbEntity
  8
0
100
AcDbLine
 10
4.264612
 20
3.754784
 30
0.0
 11
4.264612
 21
7.629784
 31
0.0
  0
LINE
  5
2BD
100
AcDbEntity
  8
0
100
AcDbLine
 10
3.514612
 20
4.349284
 30
0.0
 11
3.514612
 21
6.535284
 31
0.0
  0
LINE
  5
2C2
100
AcDbEntity
  8
0
100
AcDbLine
 10
3.607612
 20
3.754784
 30
0.0
 11
4.264612
 21
3.754784
 31
0.0
  0
LINE
  5
2C3
100
AcDbEntity
  8
0
100
AcDbLine
 10
2.857612
 20
3.942284
 30
0.0
 11
3.421612
 21
3.942284
 31
0.0
  0
LINE
  5
2C4
100
AcDbEntity
  8
0
100
AcDbLine
 10
2.764612
 20
3.603344
 30
0.0
 11
2.764612
 21
3.849284
 31
0.0
  0
ARC
  5
2C5
100
AcDbEntity
  8
0
100
AcDbCircle
 10
2.857612
 20
3.849284
 30
0.0
 40
0.093
100
AcDbArc
 50
90.0
 51
180.0
  0
LINE
  5
2C6
100
AcDbEntity
  8
0
100
AcDbLine
 10
3.514612
 20
3.849284
 30
0.0
 11
3.514612
 21
4.107902
 31
0.0
  0
ARC
  5
2C7
100
AcDbEntity
  8
0
100
AcDbCircle
 10
3.421612
 20
3.849284
 30
0.0
 40
0.093
100
AcDbArc
 50
0.0
 51
90.0
  0
ARC
  5
2C8
100
AcDbEntity
  8
0
100
AcDbCircle
 10
3.607612
 20
3.847784
 30
0.0
 40
0.093
100
AcDbArc
 50
180.0
 51
270.0
  0
LINE
  5
2C9
100
AcDbEntity
  8
0
100
AcDbLine
 10
3.514612
 20
3.847784
 30
0.0
 11
3.514612
 21
3.849284
 31
0.0
  0
ARC
  5
2CA
100
AcDbEntity
  8
0
100
AcDbCircle
 10
3.421612
 20
4.349284
 30
0.0
 40
0.093
100
AcDbArc
 50
0.0
 51
90.0
  0
LINE
  5
2CB
100
AcDbEntity
  8
0
100
AcDbLine
 10
3.514612
 20
4.21976
 30
0.0
 11
3.514612
 21
4.349284
 31
0.0
  0
LINE
  5
2CC
100
AcDbEntity
  8
0
100
AcDbLine
 10
3.514612
 20
4.107902
 30
0.0
 11
3.514612
 21
4.21976
 31
0.0
  0
LINE
  5
2D1
100
AcDbEntity
  8
0
100
AcDbLine
 10
3.607612
 20
7.629784
 30
0.0
 11
4.264612
 21
7.629784
 31
0.0
  0
LINE
  5
2D2
100
AcDbEntity
  8
0
100
AcDbLine
 10
3.514612
 20
6.535284
 30
0.0
 11
3.514612
 21
7.535284
 31
0.0
  0
ARC
  5
2D3
100
AcDbEntity
  8
0
100
AcDbCircle
 10
3.421612
 20
6.535284
 30
0.0
 40
0.093
100
AcDbArc
 50
270.0
 51
0.0
  0
ARC
  5
2D4
100
AcDbEntity
  8
0
100
AcDbCircle
 10
3.421612
 20
7.535284
 30
0.0
 40
0.093
100
AcDbArc
 50
270.0
 51
0.0
  0
ARC
  5
2D5
100
AcDbEntity
  8
0
100
AcDbCircle
 10
3.607612
 20
7.536784
 30
0.0
 40
0.093
100
AcDbArc
 50
90.0
 51
180.0
  0
LINE
  5
2D6
100
AcDbEntity
  8
0
100
AcDbLine
 10
3.514612
 20
7.535284
 30
0.0
 11
3.514612
 21
7.536784
 31
0.0
  0
LINE
  5
2D8
100
AcDbEntity
  8
0
100
AcDbLine
 10
-11.360475
 20
4.191784
 30
0.0
 11
-11.360475
 21
7.192784
 31
0.0
  0
CIRCLE
  5
2D9
100
AcDbEntity
  8
HIDDEN_LINE
  6
HIDDEN2
100
AcDbCircle
 10
-10.922975
 20
4.192284
 30
0.0
 40
0.1875
  0
CIRCLE
  5
2DA
100
AcDbEntity
  8
0
100
AcDbCircle
 10
-10.922975
 20
4.192284
 30
0.0
 40
0.156
  0
LINE
  5
2DC
100
AcDbEntity
  8
0
100
AcDbLine
 10
-11.265975
 20
3.442284
 30
0.0
 11
-10.390975
 21
3.442284
 31
0.0
  0
ARC
  5
2DD
100
AcDbEntity
  8
0
100
AcDbCircle
 10
-10.923475
 20
4.191784
 30
0.0
 40
0.437
100
AcDbArc
 50
180.0
 51
270.0
  0
LINE
  5
2DF
100
AcDbEntity
  8
0
  6
DASHED2
100
AcDbLine
 10
-11.172975
 20
3.535284
 30
0.0
 11
-11.172975
 21
3.83301
 31
0.0
  0
LINE
  5
2E0
100
AcDbEntity
  8
0
100
AcDbLine
 10
-11.172975
 20
3.535284
 30
0.0
 11
-11.172975
 21
3.83301
 31
0.0
  0
LINE
  5
2E1
100
AcDbEntity
  8
0
100
AcDbLine
 10
-11.422975
 20
3.442284
 30
0.0
 11
-11.265975
 21
3.442284
 31
0.0
  0
LINE
  5
2E4
100
AcDbEntity
  8
0
100
AcDbLine
 10
-10.172975
 20
3.535284
 30
0.0
 11
-10.172975
 21
3.754784
 31
0.0
  0
LINE
  5
2E5
100
AcDbEntity
  8
0
100
AcDbLine
 10
-10.390975
 20
3.442284
 30
0.0
 11
-10.265975
 21
3.442284
 31
0.0
  0
CIRCLE
  5
2F3
100
AcDbEntity
  8
HIDDEN_LINE
  6
HIDDEN2
100
AcDbCircle
 10
-10.922975
 20
7.192284
 30
0.0
 40
0.1875
  0
CIRCLE
  5
2F4
100
AcDbEntity
  8
0
100
AcDbCircle
 10
-10.922975
 20
7.192284
 30
0.0
 40
0.156
  0
ARC
  5
2F5
100
AcDbEntity
  8
0
100
AcDbCircle
 10
-10.923475
 20
7.192784
 30
0.0
 40
0.437
100
AcDbArc
 50
90.0
 51
180.0
  0
LINE
  5
2F6
100
AcDbEntity
  8
0
100
AcDbLine
 10
-11.422975
 20
6.942284
 30
0.0
 11
-11.422975
 21
7.942284
 31
0.0
  0
LINE
  5
2F9
100
AcDbEntity
  8
0
100
AcDbLine
 10
-11.422975
 20
6.942284
 30
0.0
 11
-11.360475
 21
6.942284
 31
0.0
  0
LINE
  5
301
100
AcDbEntity
  8
CTR_LINES
100
AcDbLine
 10
-7.922975
 20
3.696716
 30
0.0
 11
-7.922975
 21
7.7228
 31
0.0
  0
LINE
  5
302
100
AcDbEntity
  8
0
100
AcDbLine
 10
-7.422975
 20
2.442284
 30
0.0
 11
-7.422975
 21
3.442284
 31
0.0
  0
ARC
  5
304
100
AcDbEntity
  8
0
100
AcDbCircle
 10
-8.579975
 20
3.535284
 30
0.0
 40
0.093
100
AcDbArc
 50
180.0
 51
270.0
  0
ARC
  5
305
100
AcDbEntity
  8
0
100
AcDbCircle
 10
-7.579975
 20
3.535284
 30
0.0
 40
0.093
100
AcDbArc
 50
180.0
 51
270.0
  0
LINE
  5
306
100
AcDbEntity
  8
CTR_LINES
100
AcDbLine
 10
-9.422975
 20
-3.218487
 30
0.0
 11
-9.422975
 21
7.7228
 31
0.0
  0
LINE
  5
308
100
AcDbEntity
  8
0
100
AcDbLine
 10
-7.485975
 20
0.349284
 30
0.0
 11
-7.485975
 21
1.468419
 31
0.0
  0
LINE
  5
309
100
AcDbEntity
  8
0
100
AcDbLine
 10
-8.672975
 20
0.535284
 30
0.0
 11
-8.672975
 21
2.349284
 31
0.0
  0
LINE
  5
30A
100
AcDbEntity
  8
0
100
AcDbLine
 10
-7.672975
 20
0.535284
 30
0.0
 11
-7.672975
 21
2.349284
 31
0.0
  0
LINE
  5
30B
100
AcDbEntity
  8
0
100
AcDbLine
 10
-8.579975
 20
0.442284
 30
0.0
 11
-7.579975
 21
0.442284
 31
0.0
  0
ARC
  5
30E
100
AcDbEntity
  8
0
100
AcDbCircle
 10
-8.579975
 20
0.535284
 30
0.0
 40
0.093
100
AcDbArc
 50
180.0
 51
270.0
  0
LINE
  5
30F
100
AcDbEntity
  8
0
100
AcDbLine
 10
-8.672975
 20
0.442284
 30
0.0
 11
-8.454975
 21
0.442284
 31
0.0
  0
LINE
  5
312
100
AcDbEntity
  8
0
100
AcDbLine
 10
-7.485975
 20
-0.307716
 30
0.0
 11
-7.485975
 21
0.349284
 31
0.0
  0
ARC
  5
313
100
AcDbEntity
  8
0
100
AcDbCircle
 10
-7.578975
 20
0.349284
 30
0.0
 40
0.093
100
AcDbArc
 50
0.0
 51
90.0
  0
ARC
  5
314
100
AcDbEntity
  8
0
100
AcDbCircle
 10
-7.579975
 20
0.535284
 30
0.0
 40
0.093
100
AcDbArc
 50
180.0
 51
270.0
  0
LINE
  5
315
100
AcDbEntity
  8
0
100
AcDbLine
 10
-7.579975
 20
0.442284
 30
0.0
 11
-7.578975
 21
0.442284
 31
0.0
  0
LINE
  5
316
100
AcDbEntity
  8
0
100
AcDbLine
 10
-8.579975
 20
2.442284
 30
0.0
 11
-7.579975
 21
2.442284
 31
0.0
  0
ARC
  5
317
100
AcDbEntity
  8
0
100
AcDbCircle
 10
-8.579975
 20
2.349284
 30
0.0
 40
0.093
100
AcDbArc
 50
90.0
 51
180.0
  0
LINE
  5
318
100
AcDbEntity
  8
0
100
AcDbLine
 10
-8.672975
 20
2.442284
 30
0.0
 11
-8.454975
 21
2.442284
 31
0.0
  0
LINE
  5
319
100
AcDbEntity
  8
0
100
AcDbLine
 10
-7.485975
 20
1.567284
 30
0.0
 11
-7.485975
 21
1.567284
 31
0.0
  0
LINE
  5
31B
100
AcDbEntity
  8
0
100
AcDbLine
 10
-7.579975
 20
2.442284
 30
0.0
 11
-7.422975
 21
2.442284
 31
0.0
  0
ARC
  5
31C
100
AcDbEntity
  8
0
100
AcDbCircle
 10
-7.579975
 20
2.349284
 30
0.0
 40
0.093
100
AcDbArc
 50
90.0
 51
180.0
  0
DIMENSION
  5
320
100
AcDbEntity
  8
DIMS_TEXT
100
AcDbDimension
  2
*D23
 10
-6.402925
 20
4.192284
 30
0.0
 11
-6.402925
 21
5.082806
 31
0.0
 12
-20.116072
 22
0.0
 32
0.0
 70
   160
  1
3.000\PTYP.
  3
STANDARD
100
AcDbAlignedDimension
 13
-7.422975
 23
7.192284
 33
0.0
 14
-7.102724
 24
4.192284
 34
0.0
 50
90.0
100
AcDbRotatedDimension
1001
ACAD
1000
DSTYLE
1002
{
1070
    78
1070
     4
1070
   284
1070
     4
1070
   140
1040
0.15
1070
   172
1070
     1
1070
   272
1070
     0
1070
    40
1040
1.086872
1070
   271
1070
     2
1002
}
  0
LINE
  5
323
100
AcDbEntity
  8
0
100
AcDbLine
 10
-7.485475
 20
4.191784
 30
0.0
 11
-7.485475
 21
7.192784
 31
0.0
  0
CIRCLE
  5
324
100
AcDbEntity
  8
HIDDEN_LINE
  6
HIDDEN2
100
AcDbCircle
 10
-7.922975
 20
4.192284
 30
0.0
 40
0.1875
  0
CIRCLE
  5
325
100
AcDbEntity
  8
0
100
AcDbCircle
 10
-7.922975
 20
4.192284
 30
0.0
 40
0.156
  0
LINE
  5
327
100
AcDbEntity
  8
0
100
AcDbLine
 10
-8.579975
 20
3.442284
 30
0.0
 11
-7.579975
 21
3.442284
 31
0.0
  0
ARC
  5
328
100
AcDbEntity
  8
0
100
AcDbCircle
 10
-7.922475
 20
4.191784
 30
0.0
 40
0.437
100
AcDbArc
 50
270.0
 51
360.0
  0
LINE
  5
329
100
AcDbEntity
  8
0
100
AcDbLine
 10
-8.672975
 20
3.535284
 30
0.0
 11
-8.672975
 21
3.754784
 31
0.0
  0
LINE
  5
32A
100
AcDbEntity
  8
0
100
AcDbLine
 10
-8.672975
 20
3.442284
 30
0.0
 11
-8.454975
 21
3.442284
 31
0.0
  0
LINE
  5
32E
100
AcDbEntity
  8
0
100
AcDbLine
 10
-7.672975
 20
3.535284
 30
0.0
 11
-7.672975
 21
3.83301
 31
0.0
  0
LINE
  5
32F
100
AcDbEntity
  8
0
100
AcDbLine
 10
-7.579975
 20
3.442284
 30
0.0
 11
-7.422975
 21
3.442284
 31
0.0
  0
CIRCLE
  5
333
100
AcDbEntity
  8
HIDDEN_LINE
  6
HIDDEN2
100
AcDbCircle
 10
-7.922975
 20
7.192284
 30
0.0
 40
0.1875
  0
CIRCLE
  5
334
100
AcDbEntity
  8
0
100
AcDbCircle
 10
-7.922975
 20
7.192284
 30
0.0
 40
0.156
  0
ARC
  5
337
100
AcDbEntity
  8
0
100
AcDbCircle
 10
-7.922475
 20
7.192784
 30
0.0
 40
0.437
100
AcDbArc
 50
0.0
 51
90.0
  0
DIMENSION
  5
339
100
AcDbEntity
  8
DIMS_TEXT
100
AcDbDimension
  2
*D24
 10
-6.910073
 20
5.692284
 30
0.0
 11
-6.910073
 21
6.442284
 31
0.0
 12
-20.116072
 22
0.0
 32
0.0
 70
    32
  1
1.500\PTYP.
  3
STANDARD
100
AcDbAlignedDimension
 13
-7.422975
 23
7.192284
 33
0.0
 14
-7.485475
 24
5.692284
 34
0.0
 50
90.0
100
AcDbRotatedDimension
1001
ACAD
1000
DSTYLE
1002
{
1070
    78
1070
     4
1070
   284
1070
     4
1070
   140
1040
0.15
1070
   172
1070
     1
1070
   272
1070
     0
1070
    40
1040
1.086872
1070
   271
1070
     2
1002
}
  0
LINE
  5
33E
100
AcDbEntity
  8
0
100
AcDbLine
 10
-7.422975
 20
6.942284
 30
0.0
 11
-7.422975
 21
7.942284
 31
0.0
  0
LINE
  5
341
100
AcDbEntity
  8
0
100
AcDbLine
 10
-7.485475
 20
6.942284
 30
0.0
 11
-7.422975
 21
6.942284
 31
0.0
  0
LINE
  5
343
100
AcDbEntity
  8
CTR_LINES
100
AcDbLine
 10
-11.812051
 20
5.692284
 30
0.0
 11
4.556851
 21
5.692284
 31
0.0
  0
LINE
  5
4A0
100
AcDbEntity
  8
0
100
AcDbLine
 10
-4.925388
 20
5.192284
 30
0.0
 11
-2.235388
 21
5.192284
 31
0.0
  0
LINE
  5
4A1
100
AcDbEntity
  8
0
100
AcDbLine
 10
1.514612
 20
-2.997716
 30
0.0
 11
1.514612
 21
-0.307716
 31
0.0
  0
LINE
  5
4A2
100
AcDbEntity
  8
0
100
AcDbLine
 10
0.514612
 20
-2.997716
 30
0.0
 11
0.514612
 21
-0.307716
 31
0.0
  0
LINE
  5
4A3
100
AcDbEntity
  8
0
100
AcDbLine
 10
-4.985388
 20
5.252284
 30
0.0
 11
-4.985388
 21
6.132284
 31
0.0
  0
LINE
  5
4A4
100
AcDbEntity
  8
0
100
AcDbLine
 10
0.574612
 20
-3.057716
 30
0.0
 11
1.454612
 21
-3.057716
 31
0.0
  0
LINE
  5
4A9
100
AcDbEntity
  8
0
100
AcDbLine
 10
-8.922975
 20
-2.997716
 30
0.0
 11
-8.922975
 21
-0.307716
 31
0.0
  0
LINE
  5
4AA
100
AcDbEntity
  8
0
100
AcDbLine
 10
-9.922975
 20
-2.997716
 30
0.0
 11
-9.922975
 21
-0.307716
 31
0.0
  0
LINE
  5
4AB
100
AcDbEntity
  8
0
100
AcDbLine
 10
-9.862975
 20
-3.057716
 30
0.0
 11
-8.982975
 21
-3.057716
 31
0.0
  0
LINE
  5
4FA
100
AcDbEntity
  8
0
100
AcDbLine
 10
-8.982975
 20
-3.057716
 30
0.0
 11
-8.922975
 21
-2.997716
 31
0.0
  0
LINE
  5
4FB
100
AcDbEntity
  8
0
100
AcDbLine
 10
-9.922975
 20
-2.997716
 30
0.0
 11
-9.862975
 21
-3.057716
 31
0.0
  0
LINE
  5
4FC
100
AcDbEntity
  8
0
100
AcDbLine
 10
-4.925388
 20
6.192284
 30
0.0
 11
-4.985388
 21
6.132284
 31
0.0
  0
LINE
  5
4FD
100
AcDbEntity
  8
0
100
AcDbLine
 10
-4.925388
 20
5.192284
 30
0.0
 11
-4.985388
 21
5.252284
 31
0.0
  0
LINE
  5
4FE
100
AcDbEntity
  8
0
100
AcDbLine
 10
0.514612
 20
-2.997716
 30
0.0
 11
0.574612
 21
-3.057716
 31
0.0
  0
LINE
  5
4FF
100
AcDbEntity
  8
0
100
AcDbLine
 10
1.514612
 20
-2.997716
 30
0.0
 11
1.454612
 21
-3.057716
 31
0.0
  0
LINE
  5
500
100
AcDbEntity
  8
0
100
AcDbLine
 10
-9.922975
 20
-2.997716
 30
0.0
 11
-8.922975
 21
-2.997716
 31
0.0
  0
LINE
  5
501
100
AcDbEntity
  8
0
100
AcDbLine
 10
-4.925388
 20
5.192284
 30
0.0
 11
-4.925388
 21
5.567284
 31
0.0
  0
LINE
  5
502
100
AcDbEntity
  8
0
100
AcDbLine
 10
0.514612
 20
-2.997716
 30
0.0
 11
0.889612
 21
-2.997716
 31
0.0
  0
DIMENSION
  5
55A
100
AcDbEntity
  8
DIMS_TEXT
100
AcDbDimension
  2
*D25
 10
4.264612
 20
10.20802
 30
0.0
 11
-0.360388
 21
10.20802
 31
0.0
 70
    32
  1
9.250
  3
STANDARD
100
AcDbAlignedDimension
 13
-4.985388
 23
6.132284
 33
0.0
 14
4.264612
 24
7.629784
 34
0.0
100
AcDbRotatedDimension
  0
LINE
  5
5C3
100
AcDbEntity
  8
0
100
AcDbLine
 10
-7.485975
 20
-0.307716
 30
0.0
 11
-11.359975
 21
-0.307716
 31
0.0
  0
DIMENSION
  5
5E0
100
AcDbEntity
  8
DIMS_TEXT
100
AcDbDimension
  2
*D26
 10
-12.653529
 20
5.692284
 30
0.0
 11
-12.653529
 21
2.692284
 31
0.0
 70
    32
  3
STANDARD
100
AcDbAlignedDimension
 13
-11.359975
 23
-0.307716
 33
0.0
 14
-11.812051
 24
5.692284
 34
0.0
 50
90.0
100
AcDbRotatedDimension
1001
ACAD
1000
DSTYLE
1002
{
1070
    78
1070
     4
1070
   271
1070
     3
1002
}
  0
DIMENSION
  5
5EE
100
AcDbEntity
  8
DIMS_TEXT
100
AcDbDimension
  2
*D27
 10
-13.757154
 20
7.942284
 30
0.0
 11
-13.757154
 21
2.442284
 31
0.0
 70
    32
  3
STANDARD
100
AcDbAlignedDimension
 13
-9.862975
 23
-3.057716
 33
0.0
 14
-11.422975
 24
7.942284
 34
0.0
 50
90.0
100
AcDbRotatedDimension
1001
ACAD
1000
DSTYLE
1002
{
1070
    78
1070
     4
1070
   271
1070
     3
1002
}
  0
LINE
  5
5F1
100
AcDbEntity
  8
0
100
AcDbLine
 10
1.139612
 20
-3.057716
 30
0.0
 11
1.139612
 21
-0.702744
 31
0.0
  0
LINE
  5
5F2
100
AcDbEntity
  8
0
100
AcDbLine
 10
0.889612
 20
-3.057716
 30
0.0
 11
0.889612
 21
-0.702744
 31
0.0
  0
LINE
  5
5F3
100
AcDbEntity
  8
0
100
AcDbLine
 10
-4.985388
 20
5.817284
 30
0.0
 11
-2.630388
 21
5.817284
 31
0.0
  0
LINE
  5
5F4
100
AcDbEntity
  8
0
100
AcDbLine
 10
-4.985388
 20
5.567284
 30
0.0
 11
-2.630388
 21
5.567284
 31
0.0
  0
LINE
  5
5F8
100
AcDbEntity
  8
HIDDEN_LINE
100
AcDbLine
 10
-9.067975
 20
-3.057716
 30
0.0
 11
-9.067975
 21
-1.057716
 31
0.0
  0
ARC
  5
5FA
100
AcDbEntity
  8
HIDDEN_LINE
100
AcDbCircle
 10
-8.560975
 20
-1.057716
 30
0.0
 40
0.507
100
AcDbArc
 50
135.561628
 51
180.0
  0
LINE
  5
5FB
100
AcDbEntity
  8
0
100
AcDbLine
 10
0.889612
 20
-0.702744
 30
0.0
 11
1.139612
 21
-0.702744
 31
0.0
  0
LINE
  5
60A
100
AcDbEntity
  8
0
100
AcDbLine
 10
-2.630388
 20
5.567284
 30
0.0
 11
-2.630388
 21
5.817284
 31
0.0
  0
LINE
  5
60D
100
AcDbEntity
  8
0
100
AcDbLine
 10
1.139612
 20
-2.997716
 30
0.0
 11
1.514612
 21
-2.997716
 31
0.0
  0
LINE
  5
610
100
AcDbEntity
  8
0
100
AcDbLine
 10
-4.925388
 20
5.817284
 30
0.0
 11
-4.925388
 21
6.192284
 31
0.0
  0
LEADER
  5
611
100
AcDbEntity
  8
DIMS_TEXT
100
AcDbLeader
  3
STANDARD
 73
     0
 40
0.78
 41
2.28
 76
     3
 10
-7.922975
 20
4.192284
 30
0.0
 10
-6.344764
 20
2.97481
 30
0.0
 10
-6.159373
 20
2.97481
 30
0.0
 77
   256
340
612
1001
ACAD
1000
DSTYLE
1002
{
1070
    78
1070
     4
1070
   271
1070
     3
1002
}
  0
MTEXT
  5
612
102
{ACAD_REACTORS
330
611
102
}
100
AcDbEntity
  8
DIMS_TEXT
100
AcDbMText
 10
-6.069373
 20
2.97481
 30
0.0
 40
0.18
 41
0.0
 71
     4
 72
     1
  1
\A1;.375-16 UNC-2B\PTHRU X 4\PTYP.
  0
DIMENSION
  5
61E
100
AcDbEntity
  8
DIMS_TEXT
100
AcDbDimension
  2
*D28
 10
2.632753
 20
3.085944
 30
0.0
 11
5.030622
 21
1.633787
 31
0.0
 70
   163
  1
<> THRU\PX 3
  3
STANDARD
100
AcDbDiametricDimension
 15
2.896471
 25
2.798624
 35
0.0
 40
0.0
1001
ACAD
1000
DSTYLE
1002
{
1070
    78
1070
     4
1070
   288
1070
     1
1070
   271
1070
     3
1002
}
  0
DIMENSION
  5
636
100
AcDbEntity
  8
DIMS_TEXT
100
AcDbDimension
  2
*D29
 10
-9.922975
 20
-3.809006
 30
0.0
 11
-10.567975
 21
-3.809006
 31
0.0
 70
   160
  1
%%C<>\PX 2
  3
STANDARD
100
AcDbAlignedDimension
 13
-8.922975
 23
-2.997716
 33
0.0
 14
-9.922975
 24
-2.997716
 34
0.0
100
AcDbRotatedDimension
1001
ACAD
1000
DSTYLE
1002
{
1070
    78
1070
     4
1070
   271
1070
     3
1002
}
  0
DIMENSION
  5
65C
100
AcDbEntity
  8
DIMS_TEXT
100
AcDbDimension
  2
*D30
 10
1.139612
 20
-3.847987
 30
0.0
 11
2.384612
 21
-3.847987
 31
0.0
 70
   160
  1
<> X .125\PKEYWAY\PTYP.
  3
STANDARD
100
AcDbAlignedDimension
 13
0.889612
 23
-3.057716
 33
0.0
 14
1.139612
 24
-3.057716
 34
0.0
100
AcDbRotatedDimension
1001
ACAD
1000
DSTYLE
1002
{
1070
    78
1070
     4
1070
   271
1070
     3
1002
}
  0
DIMENSION
  5
69A
100
AcDbEntity
  8
DIMS_TEXT
100
AcDbDimension
  2
*D31
 10
-1.601901
 20
-0.307716
 30
0.0
 11
-1.601901
 21
-1.682716
 31
0.0
 70
    32
  1
<>\PTYP.
  3
STANDARD
100
AcDbAlignedDimension
 13
0.574612
 23
-3.057716
 33
0.0
 14
-0.922888
 24
-0.307716
 34
0.0
 50
90.0
100
AcDbRotatedDimension
1001
ACAD
1000
DSTYLE
1002
{
1070
    78
1070
     4
1070
   271
1070
     3
1002
}
  0
CIRCLE
  5
6A7
100
AcDbEntity
  8
0
100
AcDbCircle
 10
-9.422975
 20
5.692284
 30
0.0
 40
0.5
  0
ARC
  5
6A8
100
AcDbEntity
  8
0
100
AcDbCircle
 10
-9.422975
 20
5.692284
 30
0.0
 40
0.4375
100
AcDbArc
 50
16.60155
 51
343.39845
  0
LINE
  5
6A9
100
AcDbEntity
  8
0
100
AcDbLine
 10
-9.067975
 20
5.567284
 30
0.0
 11
-9.067975
 21
5.817284
 31
0.0
  0
LINE
  5
6AA
100
AcDbEntity
  8
0
100
AcDbLine
 10
-9.067975
 20
5.817284
 30
0.0
 11
-8.938852
 21
5.817284
 31
0.0
  0
LINE
  5
6AB
100
AcDbEntity
  8
0
100
AcDbLine
 10
-9.067975
 20
5.567284
 30
0.0
 11
-8.938852
 21
5.567284
 31
0.0
  0
CIRCLE
  5
6AC
100
AcDbEntity
  8
0
100
AcDbCircle
 10
-8.723844
 20
6.414032
 30
0.0
 40
0.125
  0
CIRCLE
  5
6AD
100
AcDbEntity
  8
0
100
AcDbCircle
 10
-10.122106
 20
4.970535
 30
0.0
 40
0.125
  0
DIMENSION
  5
6BD
100
AcDbEntity
  8
DIMS_TEXT
100
AcDbDimension
  2
*D32
 10
3.628708
 20
-0.307716
 30
0.0
 11
3.088708
 21
-0.90614
 31
0.0
 70
   160
  1
.75\PTYP.
  3
STANDARD
100
AcDbAlignedDimension
 13
2.859112
 23
0.442284
 33
0.0
 14
2.952112
 24
-0.307716
 34
0.0
 50
90.0
100
AcDbRotatedDimension
1001
ACAD
1000
DSTYLE
1002
{
1070
    78
1070
     4
1070
   271
1070
     3
1002
}
  0
ARC
  5
6DC
100
AcDbEntity
  8
0
100
AcDbCircle
 10
1.675671
 20
7.629284
 30
0.0
 40
0.187
100
AcDbArc
 50
195.7951
 51
270.0
  0
ARC
  5
6DD
100
AcDbEntity
  8
0
100
AcDbCircle
 10
0.353552
 20
7.629284
 30
0.0
 40
0.187
100
AcDbArc
 50
270.0
 51
344.2049
  0
ARC
  5
6DE
100
AcDbEntity
  8
0
100
AcDbCircle
 10
2.951612
 20
2.281224
 30
0.0
 40
0.187
100
AcDbArc
 50
105.7951
 51
180.0
  0
ARC
  5
6DF
100
AcDbEntity
  8
0
100
AcDbCircle
 10
2.951612
 20
3.603344
 30
0.0
 40
0.187
100
AcDbArc
 50
180.0
 51
254.2049
  0
LINE
  5
6E3
100
AcDbEntity
  8
0
100
AcDbLine
 10
2.76454
 20
2.442276
 30
0.0
 11
1.857612
 21
2.442276
 31
0.0
  0
ARC
  5
6E4
100
AcDbEntity
  8
0
100
AcDbCircle
 10
1.857612
 20
2.349276
 30
0.0
 40
0.093
100
AcDbArc
 50
90.0
 51
180.0
  0
DIMENSION
  5
6F2
100
AcDbEntity
  8
DIMS_TEXT
100
AcDbDimension
  2
*D33
 10
1.014612
 20
8.856278
 30
0.0
 11
1.889612
 21
8.856278
 31
0.0
 70
    32
  1
<>\PTYP.
  3
STANDARD
100
AcDbAlignedDimension
 13
2.764612
 23
3.267982
 33
0.0
 14
1.014612
 24
8.010213
 34
0.0
100
AcDbRotatedDimension
1001
ACAD
1000
DSTYLE
1002
{
1070
    78
1070
     4
1070
   271
1070
     3
1002
}
  0
ARC
  5
70B
100
AcDbEntity
  8
0
100
AcDbCircle
 10
-0.828388
 20
3.527946
 30
0.0
 40
0.093
100
AcDbArc
 50
279.022927
 51
0.0
  0
ARC
  5
70C
100
AcDbEntity
  8
0
100
AcDbCircle
 10
-0.828388
 20
2.356622
 30
0.0
 40
0.093
100
AcDbArc
 50
0.0
 51
80.977073
  0
LINE
  5
70D
100
AcDbEntity
  8
0
100
AcDbLine
 10
-0.73562
 20
2.442297
 30
0.0
 11
0.171612
 21
2.442297
 31
0.0
  0
ARC
  5
70E
100
AcDbEntity
  8
0
100
AcDbCircle
 10
0.171612
 20
2.349297
 30
0.0
 40
0.093
100
AcDbArc
 50
0.0
 51
90.0
  0
ARC
  5
70F
100
AcDbEntity
  8
0
100
AcDbCircle
 10
-7.485975
 20
1.754284
 30
0.0
 40
0.187
100
AcDbArc
 50
180.0
 51
246.381742
  0
ARC
  5
710
100
AcDbEntity
  8
0
100
AcDbCircle
 10
-11.359975
 20
1.754284
 30
0.0
 40
0.187
100
AcDbArc
 50
293.618258
 51
0.0
  0
LINE
  5
71C
100
AcDbEntity
  8
HIDDEN_LINE
100
AcDbLine
 10
-7.766975
 20
0.442284
 30
0.0
 11
-7.766975
 21
-0.307716
 31
0.0
  0
LINE
  5
71D
100
AcDbEntity
  8
HIDDEN_LINE
100
AcDbLine
 10
-8.078975
 20
0.442284
 30
0.0
 11
-8.078975
 21
-0.307716
 31
0.0
  0
LINE
  5
71E
100
AcDbEntity
  8
HIDDEN_LINE
100
AcDbLine
 10
-11.078975
 20
0.442284
 30
0.0
 11
-11.078975
 21
-0.307716
 31
0.0
  0
LINE
  5
71F
100
AcDbEntity
  8
HIDDEN_LINE
100
AcDbLine
 10
-10.766975
 20
0.442284
 30
0.0
 11
-10.766975
 21
-0.307716
 31
0.0
  0
LINE
  5
720
100
AcDbEntity
  8
HIDDEN_LINE
100
AcDbLine
 10
-0.641388
 20
-0.307716
 30
0.0
 11
-0.641388
 21
0.442284
 31
0.0
  0
LINE
  5
721
100
AcDbEntity
  8
HIDDEN_LINE
100
AcDbLine
 10
-0.329388
 20
-0.307716
 30
0.0
 11
-0.329388
 21
0.442284
 31
0.0
  0
LINE
  5
722
100
AcDbEntity
  8
HIDDEN_LINE
100
AcDbLine
 10
2.670612
 20
-0.307716
 30
0.0
 11
2.670612
 21
0.442284
 31
0.0
  0
LINE
  5
723
100
AcDbEntity
  8
HIDDEN_LINE
100
AcDbLine
 10
2.358612
 20
-0.307716
 30
0.0
 11
2.358612
 21
0.442284
 31
0.0
  0
LINE
  5
724
100
AcDbEntity
  8
HIDDEN_LINE
100
AcDbLine
 10
-2.235388
 20
4.036284
 30
0.0
 11
-1.485388
 21
4.036284
 31
0.0
  0
LINE
  5
725
100
AcDbEntity
  8
HIDDEN_LINE
100
AcDbLine
 10
-2.235388
 20
4.348284
 30
0.0
 11
-1.485388
 21
4.348284
 31
0.0
  0
LINE
  5
726
100
AcDbEntity
  8
HIDDEN_LINE
100
AcDbLine
 10
-2.235388
 20
7.348284
 30
0.0
 11
-1.485388
 21
7.348284
 31
0.0
  0
LINE
  5
727
100
AcDbEntity
  8
HIDDEN_LINE
100
AcDbLine
 10
-2.235388
 20
7.036284
 30
0.0
 11
-1.485388
 21
7.036284
 31
0.0
  0
LINE
  5
728
100
AcDbEntity
  8
HIDDEN_LINE
100
AcDbLine
 10
-0.297888
 20
-0.307716
 30
0.0
 11
-0.297888
 21
0.442284
 31
0.0
  0
LINE
  5
729
100
AcDbEntity
  8
HIDDEN_LINE
100
AcDbLine
 10
-0.672888
 20
-0.307716
 30
0.0
 11
-0.672888
 21
0.442284
 31
0.0
  0
LINE
  5
72A
100
AcDbEntity
  8
HIDDEN_LINE
100
AcDbLine
 10
2.702112
 20
-0.307716
 30
0.0
 11
2.702112
 21
0.442284
 31
0.0
  0
LINE
  5
72B
100
AcDbEntity
  8
HIDDEN_LINE
100
AcDbLine
 10
2.327112
 20
-0.307716
 30
0.0
 11
2.327112
 21
0.442284
 31
0.0
  0
LINE
  5
72C
100
AcDbEntity
  8
HIDDEN_LINE
100
AcDbLine
 10
-2.235388
 20
7.379784
 30
0.0
 11
-1.485388
 21
7.379784
 31
0.0
  0
LINE
  5
72D
100
AcDbEntity
  8
HIDDEN_LINE
100
AcDbLine
 10
-2.235388
 20
7.004784
 30
0.0
 11
-1.485388
 21
7.004784
 31
0.0
  0
LINE
  5
72E
100
AcDbEntity
  8
HIDDEN_LINE
100
AcDbLine
 10
-2.235388
 20
4.379784
 30
0.0
 11
-1.485388
 21
4.379784
 31
0.0
  0
LINE
  5
72F
100
AcDbEntity
  8
HIDDEN_LINE
100
AcDbLine
 10
-2.235388
 20
4.004784
 30
0.0
 11
-1.485388
 21
4.004784
 31
0.0
  0
LINE
  5
730
100
AcDbEntity
  8
HIDDEN_LINE
100
AcDbLine
 10
-7.735475
 20
0.442284
 30
0.0
 11
-7.735475
 21
-0.307716
 31
0.0
  0
LINE
  5
731
100
AcDbEntity
  8
HIDDEN_LINE
100
AcDbLine
 10
-8.110475
 20
0.442284
 30
0.0
 11
-8.110475
 21
-0.307716
 31
0.0
  0
LINE
  5
732
100
AcDbEntity
  8
HIDDEN_LINE
100
AcDbLine
 10
-10.735475
 20
0.442284
 30
0.0
 11
-10.735475
 21
-0.307716
 31
0.0
  0
LINE
  5
733
100
AcDbEntity
  8
HIDDEN_LINE
100
AcDbLine
 10
-11.110475
 20
0.442284
 30
0.0
 11
-11.110475
 21
-0.307716
 31
0.0
  0
LINE
  5
734
100
AcDbEntity
  8
HIDDEN_LINE
100
AcDbLine
 10
3.514612
 20
4.004784
 30
0.0
 11
4.264612
 21
4.004784
 31
0.0
  0
LINE
  5
735
100
AcDbEntity
  8
HIDDEN_LINE
100
AcDbLine
 10
3.514612
 20
4.036284
 30
0.0
 11
4.264612
 21
4.036284
 31
0.0
  0
LINE
  5
736
100
AcDbEntity
  8
HIDDEN_LINE
100
AcDbLine
 10
3.514612
 20
4.348284
 30
0.0
 11
4.264612
 21
4.348284
 31
0.0
  0
LINE
  5
737
100
AcDbEntity
  8
HIDDEN_LINE
100
AcDbLine
 10
3.514612
 20
4.379784
 30
0.0
 11
4.264612
 21
4.379784
 31
0.0
  0
LINE
  5
738
100
AcDbEntity
  8
HIDDEN_LINE
100
AcDbLine
 10
3.514612
 20
7.004784
 30
0.0
 11
4.264612
 21
7.004784
 31
0.0
  0
LINE
  5
739
100
AcDbEntity
  8
HIDDEN_LINE
100
AcDbLine
 10
3.514612
 20
7.036284
 30
0.0
 11
4.264612
 21
7.036284
 31
0.0
  0
LINE
  5
73A
100
AcDbEntity
  8
HIDDEN_LINE
100
AcDbLine
 10
3.514612
 20
7.379784
 30
0.0
 11
4.264612
 21
7.379784
 31
0.0
  0
LINE
  5
73B
100
AcDbEntity
  8
HIDDEN_LINE
100
AcDbLine
 10
3.514612
 20
7.348284
 30
0.0
 11
4.264612
 21
7.348284
 31
0.0
  0
LINE
  5
73C
100
AcDbEntity
  8
0
100
AcDbLine
 10
-4.925388
 20
6.192284
 30
0.0
 11
-2.235388
 21
6.192284
 31
0.0
  0
LINE
  5
743
100
AcDbEntity
  8
HIDDEN_LINE
100
AcDbLine
 10
-8.71712
 20
3.942284
 30
0.0
 11
-10.140143
 21
3.942284
 31
0.0
  0
LINE
  5
746
100
AcDbEntity
  8
HIDDEN_LINE
100
AcDbLine
 10
-8.750433
 20
7.442284
 30
0.0
 11
-10.095517
 21
7.442284
 31
0.0
  0
LINE
  5
747
100
AcDbEntity
  8
HIDDEN_LINE
100
AcDbLine
 10
-10.172975
 20
3.754784
 30
0.0
 11
-10.172975
 21
3.826712
 31
0.0
  0
LINE
  5
748
100
AcDbEntity
  8
HIDDEN_LINE
100
AcDbLine
 10
-8.672975
 20
3.754784
 30
0.0
 11
-8.672975
 21
3.826712
 31
0.0
  0
LINE
  5
749
100
AcDbEntity
  8
HIDDEN_LINE
100
AcDbLine
 10
-11.172975
 20
3.83301
 30
0.0
 11
-11.172975
 21
7.382284
 31
0.0
  0
LINE
  5
74A
100
AcDbEntity
  8
HIDDEN_LINE
100
AcDbLine
 10
-7.672975
 20
3.83301
 30
0.0
 11
-7.672975
 21
7.322284
 31
0.0
  0
LINE
  5
74B
100
AcDbEntity
  8
HIDDEN_LINE
100
AcDbLine
 10
-10.276346
 20
3.993969
 30
0.0
 11
-11.069604
 21
4.390598
 31
0.0
  0
LINE
  5
74C
100
AcDbEntity
  8
HIDDEN_LINE
100
AcDbLine
 10
-8.633491
 20
3.962026
 30
0.0
 11
-7.776346
 21
4.390598
 31
0.0
  0
LINE
  5
74D
100
AcDbEntity
  8
HIDDEN_LINE
100
AcDbLine
 10
-7.727746
 20
6.497055
 30
0.0
 11
-8.618204
 21
7.387513
 31
0.0
  0
LINE
  5
74E
100
AcDbEntity
  8
HIDDEN_LINE
100
AcDbLine
 10
-10.227746
 20
7.387513
 30
0.0
 11
-11.118204
 21
6.497055
 31
0.0
  0
ARC
  5
74F
100
AcDbEntity
  8
HIDDEN_LINE
100
AcDbCircle
 10
-10.359975
 20
3.826712
 30
0.0
 40
0.187
100
AcDbArc
 50
54.0
 51
63.434949
  0
ARC
  5
750
100
AcDbEntity
  8
HIDDEN_LINE
100
AcDbCircle
 10
-8.485975
 20
3.826712
 30
0.0
 40
0.187
100
AcDbArc
 50
116.565051
 51
180.0
  0
ARC
  5
751
100
AcDbEntity
  8
HIDDEN_LINE
100
AcDbCircle
 10
-7.859975
 20
4.557856
 30
0.0
 40
0.187
100
AcDbArc
 50
296.565051
 51
0.0
  0
ARC
  5
752
100
AcDbEntity
  8
HIDDEN_LINE
100
AcDbCircle
 10
-7.859975
 20
6.364826
 30
0.0
 40
0.187
100
AcDbArc
 50
0.0
 51
45.0
  0
ARC
  5
753
100
AcDbEntity
  8
HIDDEN_LINE
100
AcDbCircle
 10
-8.750433
 20
7.255284
 30
0.0
 40
0.187
100
AcDbArc
 50
45.0
 51
90.0
  0
ARC
  5
754
100
AcDbEntity
  8
HIDDEN_LINE
100
AcDbCircle
 10
-10.095517
 20
7.255284
 30
0.0
 40
0.187
100
AcDbArc
 50
90.0
 51
135.0
  0
ARC
  5
755
100
AcDbEntity
  8
HIDDEN_LINE
100
AcDbCircle
 10
-10.985975
 20
6.364826
 30
0.0
 40
0.187
100
AcDbArc
 50
135.0
 51
180.0
  0
ARC
  5
756
100
AcDbEntity
  8
HIDDEN_LINE
100
AcDbCircle
 10
-10.985975
 20
4.557856
 30
0.0
 40
0.187
100
AcDbArc
 50
180.0
 51
243.434949
  0
ARC
  5
757
100
AcDbEntity
  8
HIDDEN_LINE
100
AcDbCircle
 10
-8.71712
 20
4.129284
 30
0.0
 40
0.187
100
AcDbArc
 50
270.0
 51
296.565051
  0
ARC
  5
758
100
AcDbEntity
  8
HIDDEN_LINE
100
AcDbCircle
 10
-10.140143
 20
4.129284
 30
0.0
 40
0.187
100
AcDbArc
 50
234.0
 51
270.0
  0
ARC
  5
759
100
AcDbEntity
  8
HIDDEN_LINE
100
AcDbCircle
 10
-10.359975
 20
3.826712
 30
0.0
 40
0.187
100
AcDbArc
 50
0.0
 51
63.434949
  0
LINE
  5
75C
100
AcDbEntity
  8
HIDDEN_LINE
100
AcDbLine
 10
-7.485975
 20
6.942284
 30
0.0
 11
-7.485475
 21
6.942284
 31
0.0
  0
ARC
  5
75D
100
AcDbEntity
  8
HIDDEN_LINE
100
AcDbCircle
 10
-7.485975
 20
6.755284
 30
0.0
 40
0.187
100
AcDbArc
 50
90.0
 51
180.0
  0
LINE
  5
75E
100
AcDbEntity
  8
HIDDEN_LINE
100
AcDbLine
 10
-11.359975
 20
6.942284
 30
0.0
 11
-11.360475
 21
6.942284
 31
0.0
  0
ARC
  5
75F
100
AcDbEntity
  8
HIDDEN_LINE
100
AcDbCircle
 10
-11.359975
 20
6.755284
 30
0.0
 40
0.187
100
AcDbArc
 50
0.0
 51
90.0
  0
CIRCLE
  5
771
100
AcDbEntity
  8
HIDDEN_LINE
100
AcDbCircle
 10
1.014612
 20
5.692284
 30
0.0
 40
0.5
  0
CIRCLE
  5
772
100
AcDbEntity
  8
HIDDEN_LINE
100
AcDbCircle
 10
1.014612
 20
5.692284
 30
0.0
 40
0.1685
  0
CIRCLE
  5
773
100
AcDbEntity
  8
HIDDEN_LINE
100
AcDbCircle
 10
1.014612
 20
5.692284
 30
0.0
 40
0.2
  0
LINE
  5
774
100
AcDbEntity
  8
HIDDEN_LINE
100
AcDbLine
 10
-11.232975
 20
6.192284
 30
0.0
 11
-11.232975
 21
6.192284
 31
0.0
  0
LINE
  5
775
100
AcDbEntity
  8
HIDDEN_LINE
100
AcDbLine
 10
-11.232975
 20
5.192284
 30
0.0
 11
-11.232975
 21
5.192284
 31
0.0
  0
LINE
  5
776
100
AcDbEntity
  8
HIDDEN_LINE
100
AcDbLine
 10
-11.232975
 20
5.192284
 30
0.0
 11
-11.232975
 21
6.192284
 31
0.0
  0
LINE
  5
777
100
AcDbEntity
  8
HIDDEN_LINE
100
AcDbLine
 10
-11.232975
 20
5.860784
 30
0.0
 11
-10.830424
 21
5.860784
 31
0.0
  0
LINE
  5
778
100
AcDbEntity
  8
HIDDEN_LINE
100
AcDbLine
 10
-11.232975
 20
5.523784
 30
0.0
 11
-10.830424
 21
5.523784
 31
0.0
  0
LINE
  5
779
100
AcDbEntity
  8
HIDDEN_LINE
100
AcDbLine
 10
-11.232975
 20
5.892284
 30
0.0
 11
-10.826295
 21
5.892284
 31
0.0
  0
LINE
  5
77B
100
AcDbEntity
  8
HIDDEN_LINE
100
AcDbLine
 10
-11.232975
 20
5.492284
 30
0.0
 11
-10.826295
 21
5.492284
 31
0.0
  0
ARC
  5
780
100
AcDbEntity
  8
HIDDEN_LINE
100
AcDbCircle
 10
-11.232975
 20
6.252284
 30
0.0
 40
0.06
100
AcDbArc
 50
270.0
 51
360.0
  0
ARC
  5
782
100
AcDbEntity
  8
HIDDEN_LINE
100
AcDbCircle
 10
-11.232975
 20
5.132284
 30
0.0
 40
0.06
100
AcDbArc
 50
360.0
 51
90.0
  0
LINE
  5
78F
100
AcDbEntity
  8
HIDDEN_LINE
100
AcDbLine
 10
-7.672975
 20
2.349284
 30
0.0
 11
-7.672975
 21
3.535284
 31
0.0
  0
LINE
  5
790
100
AcDbEntity
  8
HIDDEN_LINE
100
AcDbLine
 10
-11.172975
 20
2.349284
 30
0.0
 11
-11.172975
 21
3.535284
 31
0.0
  0
LINE
  5
795
100
AcDbEntity
  8
HIDDEN_LINE
100
AcDbLine
 10
-7.422975
 20
2.747284
 30
0.0
 11
-11.422975
 21
2.747284
 31
0.0
  0
LINE
  5
796
100
AcDbEntity
  8
HIDDEN_LINE
100
AcDbLine
 10
-7.422975
 20
3.137284
 30
0.0
 11
-11.422975
 21
3.137284
 31
0.0
  0
LINE
  5
797
100
AcDbEntity
  8
HIDDEN_LINE
100
AcDbLine
 10
-7.422975
 20
7.247284
 30
0.0
 11
-11.422975
 21
7.247284
 31
0.0
  0
LINE
  5
798
100
AcDbEntity
  8
HIDDEN_LINE
100
AcDbLine
 10
-7.422975
 20
7.637284
 30
0.0
 11
-11.422975
 21
7.637284
 31
0.0
  0
LEADER
  5
79D
100
AcDbEntity
  8
DIMS_TEXT
100
AcDbLeader
  3
STANDARD
 73
     0
 75
     1
 40
0.48
 41
0.66
 76
     3
 10
-11.23012
 20
5.882167
 30
0.0
 10
-11.727853
 20
6.661636
 30
0.0
 10
-11.907853
 20
6.661636
 30
0.0
 77
   256
340
79E
1001
ACAD
1000
DSTYLE
1002
{
1070
    78
1070
     4
1070
   271
1070
     3
1002
}
  0
MTEXT
  5
79E
102
{ACAD_REACTORS
330
79D
102
}
100
AcDbEntity
  8
DIMS_TEXT
100
AcDbMText
 10
-11.997853
 20
6.661636
 30
0.0
 40
0.18
 41
0.0
 71
     6
 72
     1
  1
\A1;PIPE\PPLUG
  0
ARC
  5
7A3
100
AcDbEntity
  8
0
100
AcDbCircle
 10
-11.234975
 20
1.468419
 30
0.0
 40
0.125
100
AcDbArc
 50
113.618258
 51
180.0
  0
ARC
  5
7A4
100
AcDbEntity
  8
0
100
AcDbCircle
 10
-7.610975
 20
1.468419
 30
0.0
 40
0.125
100
AcDbArc
 50
0.0
 51
66.381742
  0
DIMENSION
  5
7B4
100
AcDbEntity
  8
DIMS_TEXT
100
AcDbDimension
  2
*D34
 10
-9.997517
 20
4.980669
 30
0.0
 11
-14.812819
 21
4.659777
 31
0.0
 70
   163
  1
SPANNER\PWRENCH\PHOLES
  3
STANDARD
100
AcDbDiametricDimension
 15
-10.246694
 25
4.960402
 35
0.0
 40
0.0
1001
ACAD
1000
DSTYLE
1002
{
1070
    78
1070
     4
1070
   288
1070
     1
1070
   271
1070
     3
1002
}
  0
ARC
  5
7CE
100
AcDbEntity
  8
HIDDEN_LINE
100
AcDbCircle
 10
-11.232975
 20
7.382284
 30
0.0
 40
0.06
100
AcDbArc
 50
360.0
 51
90.0
  0
ARC
  5
7D0
100
AcDbEntity
  8
HIDDEN_LINE
100
AcDbCircle
 10
-7.612975
 20
7.322284
 30
0.0
 40
0.06
100
AcDbArc
 50
90.0
 51
180.0
  0
TEXT
  5
7E9
100
AcDbEntity
  8
DIMS_TEXT
100
AcDbText
 10
4.637649
 20
-5.131294
 30
0.0
 40
0.2
  1
R162    135911(C1)/135862(C2)     2:1
 41
0.7
100
AcDbText
  0
TEXT
  5
7EA
100
AcDbEntity
  8
DIMS_TEXT
100
AcDbText
 10
4.27366
 20
-4.226054
 30
0.0
 40
0.15
  1
Tel. (508) 278-2422    Fax (508) 278-7863
 41
0.9
100
AcDbText
  0
TEXT
  5
7EB
100
AcDbEntity
  8
DIMS_TEXT
100
AcDbText
 10
4.313366
 20
-3.593787
 30
0.0
 40
0.2
  1
Two Way Right Angle Gear Drive
 41
0.9
100
AcDbText
  0
TEXT
  5
7EC
100
AcDbEntity
  8
DIMS_TEXT
100
AcDbText
 10
5.134745
 20
-3.131099
 30
0.0
 40
0.3
  1
 MITRPAK
 41
1.5
100
AcDbText
  0
LINE
  5
7ED
100
AcDbEntity
  8
DIMS_TEXT
100
AcDbLine
 10
4.238379
 20
-4.651262
 30
0.0
 11
9.461749
 21
-4.651262
 31
0.0
  0
LINE
  5
7EE
100
AcDbEntity
  8
DIMS_TEXT
100
AcDbLine
 10
4.238379
 20
-4.31768
 30
0.0
 11
9.461749
 21
-4.31768
 31
0.0
  0
LINE
  5
7EF
100
AcDbEntity
  8
DIMS_TEXT
100
AcDbLine
 10
4.238379
 20
-3.992234
 30
0.0
 11
9.461749
 21
-3.992234
 31
0.0
  0
LINE
  5
7F0
100
AcDbEntity
  8
DIMS_TEXT
100
AcDbLine
 10
4.238379
 20
-3.666788
 30
0.0
 11
9.461749
 21
-3.666788
 31
0.0
  0
LINE
  5
7F1
100
AcDbEntity
  8
DIMS_TEXT
100
AcDbLine
 10
4.238379
 20
-3.243709
 30
0.0
 11
9.461749
 21
-3.243709
 31
0.0
  0
TEXT
  5
7F2
100
AcDbEntity
  8
DIMS_TEXT
100
AcDbText
 10
4.328016
 20
-4.586173
 30
0.0
 40
0.2
  1
MODEL   PART NUMBER  RATIO
100
AcDbText
  0
LWPOLYLINE
  5
7F3
100
AcDbEntity
  8
DIMS_TEXT
100
AcDbPolyline
 90
        4
 70
     1
 43
0.0
 10
4.238379
 20
-2.722996
 10
9.461749
 20
-2.722996
 10
9.461749
 20
-5.261473
 10
4.238379
 20
-5.261473
  0
TEXT
  5
7F4
100
AcDbEntity
  8
DIMS_TEXT
100
AcDbText
 10
4.27366
 20
-3.902245
 30
0.0
 40
0.15
  1
Uxbridge, MA 01569              U.S.A.
100
AcDbText
  0
LINE
  5
7F5
100
AcDbEntity
  8
DIMS_TEXT
100
AcDbLine
 10
5.566631
 20
-4.31768
 30
0.0
 11
5.566631
 21
-5.261473
 31
0.0
  0
LINE
  5
7F6
100
AcDbEntity
  8
DIMS_TEXT
100
AcDbLine
 10
8.255729
 20
-4.31768
 30
0.0
 11
8.255729
 21
-5.261473
 31
0.0
  0
ENDSEC
  0
SECTION
  2
OBJECTS
  0
DICTIONARY
  5
C
100
AcDbDictionary
  3
ACAD_GROUP
350
D
  3
ACAD_MLINESTYLE
350
1B
  0
DICTIONARY
  5
D
102
{ACAD_REACTORS
330
C
102
}
100
AcDbDictionary
  0
DICTIONARY
  5
1B
102
{ACAD_REACTORS
330
C
102
}
100
AcDbDictionary
  3
STANDARD
350
1C
  0
MLINESTYLE
  5
1C
102
{ACAD_REACTORS
330
1B
102
}
100
AcDbMlineStyle
  2
STANDARD
 70
     0
  3

 62
   256
 51
90.0
 52
90.0
 71
     2
 49
0.5
 62
   256
  6
BYLAYER
 49
-0.5
 62
   256
  6
BYLAYER
  0
ENDSEC
  0
EOF
